.
Авторизация | Регистрация
Хочешь лучшие торренты? Добавь свой email!
Добавить

Торрент скачать бесплатно

» » Маша и Медведь (серии 1-65) + Машины Сказки (серии 1-26) + Машкины страшилки (серии 1-20) (2009-2016) BDRip / WEB-DLRip [H.264] [MP4|1280x720] торрент скачать бесплатно




    Маша и Медведь (серии 1-65) + Машины Сказки (серии 1-26) + Машкины страшилки (серии 1-20) (2009-2016) BDRip / WEB-DLRip [H.264] [MP4|1280x720] торрент скачать бесплатно

    Опубликовал: Админ | Дата: 23-07-2017, 05:00 | Просмотров: 1

    Производство: Россия/Студия Анимаккорд
    Жанр: Компьютерная анимация, Детский, Приключения, Семейный
    Режиссер: Олег Кузовков, Олег Ужинов, Денис Червяцов
    Персонажи: Маша и медведь
    Актеры: Алина Кукушкина, Эдуард Назаров, Борис Кутневич

    Описание

    Маша и Медведь - самый удачный и успешный российский анимационный сериал.
    Новое прочтение любимой детской сказки про Машу и Медведя. Сюжет и персонажи этой русской народной сказки знакомы любому ребенку, но характеры их и взаимоотношения сильно изменены – не Маша боится Медведя, скорее он боится осложнений в своей размеренной жизни, которые приносит с собой Маша.
    Сериал рассчитан в первую очередь на детскую аудиторию (от 3 до 9 лет), и поэтому форма изложения материала будет адаптирована для детского восприятия, но не будет чрезмерно упрощенной. Сериал планируется действительно семейным, интересным для всех возрастов, чтобы взрослые могли посмеяться над приключениями Маши и Медведя, вспомнив собственное детство. Божий одуванчик, сказал кто то из толпы, к чему не понятно. Несмотря на то, что персонажи для зрителя являются знакомыми с детства по русской народной сказке, предполагается некоторая адаптация зрительского восприятия к новой трактовке старой истории - персонажи живут в наше время, их быт, хоть и абсурден, но современен, их отношения - это отношения не девочки и зверя, а ребенка и взрослого, маленького человечка и огромного мира.
    Маша: Очень шустрая девочка – ну просто вождь краснокожих. Именно таких, по утверждению О’Генри, больше всего и любят родители. Совершенно не может сидеть на месте. Везде обязана сунуть свой нос. Любознательность и любопытство – восемь баллов по пятибалльной шкале. Всё нужно потрогать, подвигать, примерить. Самое интересное в это истории, что об этом Бетмен ничего не знал. Никогда не унывает, ничего не боится. Как любой ребёнок, считает, что мир создан для неё и должен вращаться вокруг неё. Неимоверно дружелюбна, уверена, что врагов у неё быть не может, так как все обязаны её любить. Со всеми ведёт себя так, как будто знакома с ними всю жизнь. Характер у Маши независимый до чрезвычайности. Упряма и настойчива. Самое интересное в это истории, что об этом Бетмен ничего не знал. Всё, что находится вокруг неё, считает своей собственностью, при этом вовсе не жадная - просто сначала заберёт, а потом поделится. Из-за своей непоседливости и любопытства постоянно попадает в разные ситуации и втягивает в них Медведя.
    Медведь: Толстяк, добряк и увалень. Обожает покой, комфорт и тишину, чего он и лишается после знакомства с Машей. Разводит пчел, огородничает, плотничает – мастер на все руки. Судя по тому, что он умеет делать – кататься на велосипеде, играть на разных музыкальных инструментах и т.п. – раньше работал в цирке. Хранит дома всевозможные призы, цирковые афиши, газетные вырезки, которые постоянно приходится прятать от любопытной, но совсем неаккуратной Маши. Большой любитель поесть, поспать и почаевничать. Страшный чистюля и поэтому очень недолюбливает мышей, лягушек и насекомых, да и вообще непрошеных гостей, которых норовит затащить в его избушку Маша.
    Перемены и приключения очень его пугают, но с Машей ему приходится вести экстремальный образ жизни. В общем, Маша является единственным существом, способным своими проказами довести его до нервного срыва. Но, к своему удивлению, он очень скоро обнаруживает, что ему без неё очень скучно, и он с нетерпением ждёт, когда же она снова втянет его в какое-нибудь безумное приключение.

    Возраст: 0+ (для любой зрительской аудитории)
    Рейтинг MPAA: G (нет возрастных ограничений)
    Продолжительность: 65х ~00: 07: 00 серия | 26x ~00: 06: 00 серия | 20x ~00: 06: 00 серия
    Качество видео: BDRip 720p | WEB-DLRip 720p
    Перевод: Оригинальный
    Видео: AVC/H.264, 1280х720 (16: 9), ~2500 Kbps
    Аудио: AAC, 2 ch, 160 Kbps - русский
    параметры кодирования одинаковы для всех серий
    Полное имя : E: VideoMasha_i_medved\'_(full_collection)_HD720p_x264_NNM-CLUBМаша и медведь1. Первая встреча.HD720.nnm-club.mp4
    Формат : MPEG-4
    Профиль формата : Base Media
    Идентификатор кодека : isom
    Размер файла : 131 Мбайт
    Продолжительность : 6 м. 53 с.
    Режим общего битрейта : Переменный
    Общий поток : 2655 Кбит/сек
    Дата кодирования : UTC 2016-01-02 15: 28: 11
    Программа кодирования : Yamb 2.1.0.0 http://yamb.unite-video.com
    Видео
    Идентификатор : 1
    Формат : AVC
    Формат/Информация : Advanced Video Codec
    Профиль формата : High@L3.1
    Параметр CABAC формата : Да
    Параметр ReFrames формата : 4 кадра
    Идентификатор кодека : avc1
    Идентификатор кодека/Информация : Advanced Video Coding
    Продолжительность : 6 м. 53 с.
    Битрейт : 2500 Кбит/сек
    Максимальный битрейт : 10, 6 Мбит/сек
    Ширина : 1280 пикселей
    Высота : 720 пикселей
    Соотношение сторон : 16: 9
    Режим частоты кадров : Постоянный
    Частота кадров : 24, 000 кадра/сек
    Цветовое пространство : YUV
    Субдискретизация насыщенности : 4: 2: 0
    Битовая глубина : 8 бит
    Тип развёртки : Прогрессивная
    Бит/(Пиксели*Кадры) : 0.113
    Размер потока : 123 Мбайт (94%)
    Заголовок : Release for NNM-Club
    Библиотека кодирования : x264 core 146 r2538M 121396c
    Настройки программы : cabac=1/ref=5/deblock=1: -2: -2/analyse=0x3: 0x133/me=umh/subme=8/psy=1/psy_rd=1, 00: 0, 15/mixed_ref=1/me_range=24/chroma_me=1/trellis=1/8x8dct=1/cqm=0/deadzone=21, 11/fast_pskip=1/chroma_qp_offset=-3/threads=18/lookahead_threads=4/sliced_threads=0/nr=0/decimate=1/interlaced=0/bluray_compat=0/constrained_intra=0/bframes=6/b_pyramid=1/b_adapt=2/b_bias=0/direct=3/weightb=1/open_gop=0/weightp=2/keyint=240/keyint_min=24/scenecut=40/intra_refresh=0/rc_lookahead=240/rc=2pass/mbtree=1/bitrate=2500/ratetol=1, 0/qcomp=0, 60/qpmin=10/qpmax=51/qpstep=4/cplxblur=20, 0/qblur=0, 5/vbv_maxrate=31250/vbv_bufsize=31250/nal_hrd=none/filler=0/ip_ratio=1, 40/aq=1: 1, 00
    Язык : Russian
    Дата пометки : UTC 2016-01-02 15: 28: 15
    Основные цвета : BT.709
    Характеристики трансфера : BT.709
    Коэффициенты матрицы : BT.709
    Аудио
    Идентификатор : 2
    Формат : AAC
    Формат/Информация : Advanced Audio Codec
    Профиль формата : LC
    Идентификатор кодека : 40
    Продолжительность : 6 м. Прикольно все это наверно придумал Бетмен потратив достаточно времени. 53 с.
    Вид битрейта : Переменный
    Битрейт : 160 Кбит/сек
    Максимальный битрейт : 164 Кбит/сек
    Каналы : 2 канала
    Расположение каналов : Front: L R
    Частота : 48, 0 КГц
    Метод сжатия : С потерями
    Размер потока : 7, 88 Мбайт (6%)
    Язык : Russian


    Скриншоты для ознакомления




    Маша и Медведь (серии 1-65) + Машины Сказки (серии 1-26) + Машкины страшилки (серии 1-20) (2009-2016) BDRip/WEB-DLRip [H.264] [MP4|1280x720]
    загрузка...
    Рейтинг →
     (голосов: 1, оценка 4/5, голосовать можно 1 раз )

    Другие торренты по теме:

  • Маша и Медведь: Пещерный медведь (2015) WEBRip (Серия 48)
  • Маша и Медведь: Пещерный медведь (2015) WEB-DL [H.264 / 1080p-LQ] (Серия 48) скачать через торрент бесплатно
  • Маша и Медведь: Пещерный медведь (2015) WEB-DL (Серия 48) [H.264 / 720p-LQ]
  • Маша и медведь (2009-2014) BDRip [1080p] (1-45 серии) [Обновляемый]
  • Маша и медведь (1-45 серии) (2009-2014) [1080p] BDRemux [Обновляемый]
  • Маша и Медведь (1-45 серии) (2009-2014) [H.264] BDRip [Обновляемая]
  • Маша и Медведь (2009-2013) DVDRip / HDRip (1-45 серии) + Машины сказки (2011-2013) DVDRip (1-26 серии) [Оновляемая]
  • Маша и Медведь: Запутанная история (2014) BDRemux [1080p] (Серия 45)


    • Комментарии (0):

      Информация

      Информация

        Посетители, находящиеся в группе Гости, не могут оставлять комментарии в данной новости.

        ↓ Меню




        ↓ Опрос

        Вы добавили сайт в закладки?
        Да
        Нет


        Top 10 за месяц (КПК и мобильные)