.
Авторизация | Регистрация
Хочешь лучшие торренты? Добавь свой email!
Добавить

Торрент скачать бесплатно

» » В.Г. Сурдин. Лекция «Почему космические роботы похожи на животных» (2016) WEBRip [H.264] [MP4|1920x1080] торрент скачать бесплатно




    В.Г. Сурдин. Лекция «Почему космические роботы похожи на животных» (2016) WEBRip [H.264] [MP4|1920x1080] торрент скачать бесплатно

    Опубликовал: Админ | Дата: 20-07-2017, 05:00 | Просмотров: 0

    Жанр: Лекция, Документальный
    Ведущий: В.Г. Сурдин

    Описание

    Каждая планета оригинальна — у одних плотная атмосфера, у других разреженная, у третьих ее вообще нет. Поэтому внешний вид и конструкция космического зонда, предназначенного для посадки на поверхность планеты, должны соответствовать его функции. Поэтому космические роботы разнообразны, как животные. И, как у животных, у них одна задача — выжить и передать информацию.
    Продолжительность: 01: 14: 49
    Качество видео: WEBRip
    Субтитры: отсутствуют
    Видео: AVC/H.264, 1920x1080 (16: 9), ~1699 Кбит/сек
    Аудио: AAC, 2 ch, 126 Кбит/сек

    Формат : MPEG-4
    Профиль формата : Base Media
    Идентификатор кодека : isom (isom/iso2/avc1/mp41)
    Размер файла : 978 Мбайт
    Продолжительность : 1 ч. 14 м.
    Режим общего битрейта : Переменный
    Общий поток : 1827 Кбит/сек
    Дата кодирования : UTC 2017-02-25 18: 38: 24
    Дата пометки : UTC 2017-02-25 18: 38: 24
    Видео
    Идентификатор : 1
    Формат : AVC
    Формат/Информация : Advanced Video Codec
    Профиль формата : High@L4
    Параметр CABAC формата : Да
    Параметр ReFrames формата : 3 кадра
    Идентификатор кодека : avc1
    Идентификатор кодека/Информация : Advanced Video Coding
    Продолжительность : 1 ч. 14 м.
    Битрейт : 1699 Кбит/сек
    Ширина : 1920 пикселей
    Высота : 1080 пикселей
    Соотношение сторон : 16: 9
    Режим частоты кадров : Постоянный
    Частота кадров : 25, 000 кадров/сек
    Цветовое пространство : YUV
    Субдискретизация насыщенности : 4: 2: 0
    Битовая глубина : 8 бит
    Тип развёртки : Прогрессивная
    Бит/(Пиксели*Кадры) : 0.033
    Размер потока : 909 Мбайт (93%)
    Дата кодирования : UTC 2017-02-25 18: 38: 24
    Дата пометки : UTC 2017-02-25 18: 38: 24
    Цветовой диапазон : Limited
    Основные цвета : BT.709
    Характеристики трансфера : BT.709
    Коэффициенты матрицы : BT.709
    Аудио
    Идентификатор : 2
    Формат : AAC
    Формат/Информация : Advanced Audio Codec
    Профиль формата : LC
    Идентификатор кодека : 40
    Продолжительность : 1 ч. Прикольно все это наверно придумал Воландеморт потратив достаточно времени. 14 м.
    Вид битрейта : Переменный
    Битрейт : 126 Кбит/сек
    Каналы : 2 канала
    Расположение каналов : Front: L R
    Частота : 44, 1 КГц
    Частота кадров : 43, 066 кадра/сек (1024 spf)
    Метод сжатия : С потерями
    Размер потока : 67, 2 Мбайт (7%)
    Default : Да
    Alternate group : 1


    Скриншоты для ознакомления




    В.Г. Сурдин. Лекция «Почему космические роботы похожи на животных» (2016) WEBRip [H.264] [MP4|1920x1080]
    загрузка...
    Рейтинг →
     (голосов: 1, оценка 3/5, голосовать можно 1 раз )

    Другие торренты по теме:

  • В. Г. Сурдин. Лекция "Удивительный Марс" (2013) WEBRip [H.264] [MP4|1920х1080]
  • В.Г. Сурдин. Лекция "Поиски новой жизни. Исследование близких и дальних планет" (2013) WEBRip [H.264] [MP4|1920х1080]
  • В.Г. Сурдин. Лекция "НЛО: готовимся к встрече" (2015) WEBRip [H.264] [MP4|640x360]
  • В.Г. Сурдин. Лекция "I Want to Believe или поиски внеземных цивилизаций" (2013) WEBRip [H.264] [MP4|1280x720]
  • В.Г. Сурдин. Лекция «Эволюция Солнца и Солнечной системы» (2015) WEBRip [H.264] [MP4|1280x720]
  • В.Г. Сурдин. Лекция «Мифы и заблуждения в науке о Вселенной» (2015) WEBRip [H.264] [MP4|1920х1080]
  • В.Г. Сурдин. Лекция «Верхом на комете» (2015) WEBRip [H.264] [MP4|1920х1080]
  • В.Г. Сурдин. Лекция «Заблуждения и мифы о Вселенной» (2016) WEBRip [H.264] [MP4|1920х1080]


    • Комментарии (0):

      Информация

      Информация

        Посетители, находящиеся в группе Гости, не могут оставлять комментарии в данной новости.

        ↓ Меню




        ↓ Опрос

        Вы добавили сайт в закладки?
        Да
        Нет


        Top 10 за месяц (КПК и мобильные)