.
Авторизация | Регистрация
Хочешь лучшие торренты? Добавь свой email!
Добавить

Торрент скачать бесплатно

» » Смертельное оружие / Lethal Weapon (2016) WEB-DL [H.264] (сезон 1, серии 1-3 из 13) LostFilm [MP4|1280x720] торрент скачать бесплатно




    Смертельное оружие / Lethal Weapon (2016) WEB-DL [H.264] (сезон 1, серии 1-3 из 13) LostFilm [MP4|1280x720] торрент скачать бесплатно

    Опубликовал: Админ | Дата: 10-10-2016, 04:01 | Просмотров: 19

    Производство: США/Good Session, Lin Pictures, Warner Bros. Television
    Жанр: боевик, триллер, драма, криминал
    Режиссер: Стив Бойум, МакДжи
    Актеры: Клейн Кроуфорд, Дэймон Уайанс, Джордана Брюстер, Данте Браун, Джонатан Фернандес, Чандлер Кинни, Кевин Рам, Киша Шарп, Флориана Лима и др.

    Описание

    На киносерии Смертельное оружие выросло не одно поколение зрителей, и студия Warner Bros давно хотела вернуть героев франшизы на экраны. В реализации этой задумки компании помог канал Fox, который согласился представить сериаломанам амбициозную новинку осеннего телесезона — драматический боевик Смертельное оружие. Создатели шоу сразу же задались целью не копировать в точности оригинальные фильмы, а взять лишь основную идею и хлещет как из ведра интерпретировать ее на свой лад. Для работы над проектом была привлечена команда из талантливых режиссеров и сценаристов, имеющих за плечами серьезный опыт работы на телевидении в жанре как боевиков, так и детективов...
    Полицейский Мартин Риггз работает в Техасе, он весел, бесшабашен, счастливо женат и ждет рождения сына. Но по дороге в роддом его жена гибнет в ДТП, и Риггз превращается в сломленного человека, который искренне желает умереть, поскольку жить ему теперь незачем. Он переезжает в Лос-Анджелес, поступает в тамошнюю полицию и получает в напарники 50-летнего Роджера Мерту. Тот только что перенес инфаркт, старается соблюдать режим и не подвергать сердце избыточным нагрузкам. Но с Риггзом этот номер не пройдет.

    Дата мировой премьеры: 21 сентября 2016
    Продолжительность: ~00: 45: 00 серия
    Качество видео: WEB-DL
    Перевод: Многоголосый закадровый, профессиональный -LostFilm
    Реклама: присутствует заставка и логотип LostFilm
    Видео: AVC/H.264 (High@L4.1 ), 1280x720 (16: 9), ~4000 Кбит/сек
    Аудио: AAC, 2 канала, 265 Кбит/сек - русский (многоголосый закадровый)
    Код:

    Полное имя : F:Lethal_Weapon_s1_WEB-DL720p_x264_LostFilm_[NNMClub]Lethal.Weapon.S01E01.720p.WEB.rus.LostFilm.TV.mp4
    Формат : MPEG-4
    Профиль формата : Base Media
    Идентификатор кодека : isom (isom)
    Размер файла : 1, 40 Гбайт
    Продолжительность : 47 м.
    Режим общего битрейта : Переменный
    Общий поток : 4251 Кбит/сек
    Коллекция : Смертельное оружие
    Сезон : 1
    Альбом : Смертельное оружие, Сезон 1
    Альбом/Исполнитель : Смертельное оружие
    Часть : 1
    Часть/Положение : 1
    Трек : Пилот
    Трек/Положение : 1
    Исполнитель : Смертельное оружие
    Жанр : Drama
    Тип содержимого : TV Show
    Дата записи : 2016
    Дата кодирования : UTC 2016-09-24 08:24:27
    Дата пометки : UTC 2016-09-24 08:24:27
    Программа кодирования : LostCoder
    Авторское право : LostFilm.TV (c)
    Обложка : Yes
    Примечание : Лишившись самого дорогого человека, Мартин впадает в депрессию и даже подумывает о самоубийстве. Поскольку он ни во что не ставит свою жизнь, то и рисковать не боится. Решив начать все с чистого листа, Риггс отправляется в манящий огнями Лос-Анджелес.
    Part_ID : 101
    rati : (Binary)
    Видео
    Идентификатор : 1
    Формат : AVC
    Формат/Информация : Advanced Video Codec
    Профиль формата :High@L4.1
    Параметр CABAC формата : Нет
    Параметр ReFrames формата : 4 кадра
    Идентификатор кодека : avc1
    Идентификатор кодека/Информация : Advanced Video Coding
    Продолжительность : 47 м.
    Битрейт : 4000 Кбит/сек
    Максимальный битрейт : 6408 Кбит/сек
    Ширина : 1280 пикселей
    Высота : 720 пикселей
    Соотношение сторон : 16:9
    Режим частоты кадров : Постоянный
    Частота кадров : 23, 976 (24000/1001) кадра/сек
    Частота кадров в оригинале : 23, 976 (23976/1000) кадра/сек
    Цветовое пространство : YUV
    Субдискретизация насыщенности : 4:2:0
    Битовая глубина : 8 бит
    Тип развёртки : Прогрессивная
    Бит/(Пиксели*Кадры) : 0.181
    Размер потока : 1, 31 Гбайт (94%)
    Заголовок : Imported with GPAC 0.4.6-DEV (internal rev. 5)
    Библиотека кодирования : x264 core 112 r1834 a51816a
    Настройки программы : cabac=0/ref=3/deblock=1:0:0/analyse=0x3:0x113/me=hex/subme=7/psy=1/psy_rd=1.00:0.00/mixed_ref=1/me_range=16/chroma_me=1/trellis=1/8x8dct=1/cqm=0/deadzone=21, 11/fast_pskip=1/chroma_qp_offset=-2/threads=6/sliced_threads=0/nr=0/decimate=1/interlaced=0/constrained_intra=0/bframes=4/b_pyramid=2/b_adapt=1/b_bias=0/direct=1/weightb=1/open_gop=0/weightp=2/keyint=250/keyint_min=25/scenecut=40/intra_refresh=0/rc_lookahead=40/rc=2pass/mbtree=1/bitrate=4000/ratetol=1.0/qcomp=0.60/qpmin=0/qpmax=51/qpstep=4/cplxblur=20.0/qblur=0.5/vbv_maxrate=5000/vbv_bufsize=2000/ip_ratio=1.40/aq=1:1.00/nal_hrd=none
    Дата кодирования : UTC 2016-09-24 00:09:08
    Дата пометки : UTC 2016-09-24 08:24:44
    Аудио
    Идентификатор : 2
    Формат : AAC
    Формат/Информация : Advanced Audio Codec
    Профиль формата : LC
    Идентификатор кодека : 40
    Продолжительность : 47 м.
    Вид битрейта : Переменный
    Битрейт : 265 Кбит/сек
    Максимальный битрейт : 329 Кбит/сек
    Каналы : 2 канала
    Расположение каналов : Front: L R
    Частота : 48, 0 КГц
    Частота кадров : 46, 875 кадров/сек (1024 spf)
    Метод сжатия : С потерями
    Размер потока : 89, 4 Мбайт (6%)
    Дата кодирования : UTC 2016-09-24 08:24:43
    Дата пометки : UTC 2016-09-24 08:24:44


    Скриншоты для ознакомления




    Смертельное оружие/Lethal Weapon (2016) WEB-DL [H.264] (сезон 1, серии 1-3 из 13) LostFilm [MP4|1280x720]
    загрузка...
    Рейтинг →
     (голосов: 1, оценка 3/5, голосовать можно 1 раз )

    Другие торренты по теме:

  • Смертельное оружие 2 / Lethal Weapon 2 (1989) BDRip [H.264] скачать через торрент бесплатно
  • Смертельное оружие / Lethal Weapon (1987) BDRip [H.264] скачать через торрент бесплатно
  • Смертельное оружие 3 / Lethal Weapon 3 (1992) BDRip [H.264] скачать через торрент бесплатно
  • Смертельное оружие 4 / Lethal Weapon 4 (1998) BDRip [H.264]
  • Смертельное оружие. Конструктор Макаров (2008) SATRip скачать через торрент бесплатно
  • Михаил Барятинский | Тяжелый танк "Тигр". Смертельное оружие Рейха (2006) [PDF]
  • Смертельное Оружие / Lethal Weapon (2016) HDTVRip [H.264 / 720p-LQ] (сезон 1, серии 1 из 13) OmskBird (обновляемая)
  • Смертельное Оружие / Lethal Weapon (2016) HDTVRip (сезон 1, серии 1 из 13) OmskBird (обновляемая)


    • Комментарии (0):

      Информация

      Информация

        Посетители, находящиеся в группе Гости, не могут оставлять комментарии в данной новости.

        ↓ Меню




        ↓ Опрос

        Вы добавили сайт в закладки?
        Да
        Нет


        Top 10 за месяц (КПК и мобильные)