.
Авторизация | Регистрация
Хочешь лучшие торренты? Добавь свой email!
Добавить

Торрент скачать бесплатно

» » Документалистика сегодня! / Documentary Now! (2016) WEB-DLRip [H.264] (сезон 2, серии 1-2 из 7) Ozz [MP4|1280x718] торрент скачать бесплатно




    Документалистика сегодня! / Documentary Now! (2016) WEB-DLRip [H.264] (сезон 2, серии 1-2 из 7) Ozz [MP4|1280x718] торрент скачать бесплатно

    Опубликовал: Админ | Дата: 2-10-2016, 13:55 | Просмотров: 28

    Производство: США
    Жанр: Комедия
    Режиссер: Александр Буоно, Риз Томас
    Актеры: Фред Армисен, Билл Хейдер, Хелен Миррен, Ирвинг Азофф, Кэмерон Кроу, Дэрил Холл, Кенни Логгинс, Алана Хаим, Чак Клостерман, Даниэль Хаим

    Описание

    Телесериал Документалистика сегодня — это не совсем документальное кино. Это пародия, совмещенная с хулиганским шоу. Это некая издевка над серьезными документальными фильмами. Причем каждая серия осмеивает новый документальный фильм.

    Продолжительность: ~00: 22: 00 серия
    Качество видео: WEB-DLRip
    Реклама: присутствуют видио и аудио вставки рекламы
    Перевод: Многоголосый закадровый -Ozz
    Автор перевода: Василий Мерзляков
    Озвучка: Иван Кузнецов, Елена Каламурза и Алексей Серегин
    Видео: AVC/H.264, 1280x718 (16: 9), ~1980 Кбит/сек
    Аудио: AAC, 2 канала, 123 Кбит/сек
    Код:

    Формат : MPEG-4
    Профиль формата : Base Media
    Идентификатор кодека : isom (isom/iso2/avc1/mp41)
    Размер файла : 333 Мбайт
    Продолжительность : 22 м. 3 с.
    Режим общего битрейта : Переменный
    Общий поток : 2109 Кбит/сек
    Программа кодирования : Lavf56.25.101
    Видео
    Идентификатор : 1
    Формат : AVC
    Формат/Информация : Advanced Video Codec
    Профиль формата :High@L3.1
    Параметр CABAC формата : Да
    Параметр ReFrames формата : 4 кадра
    Идентификатор кодека : avc1
    Идентификатор кодека/Информация : Advanced Video Coding
    Продолжительность : 22 м. 3 с.
    Битрейт : 1980 Кбит/сек
    Ширина : 1280 пикселей
    Высота : 718 пикселей
    Соотношение сторон : 16:9
    Режим частоты кадров : Постоянный
    Частота кадров : 23, 976 (24000/1001) кадра/сек
    Цветовое пространство : YUV
    Субдискретизация насыщенности : 4:2:0
    Битовая глубина : 8 бит
    Тип развёртки : Прогрессивная
    Бит/(Пиксели*Кадры) : 0.090
    Размер потока : 312 Мбайт (94%)
    Библиотека кодирования : x264 core 142
    Настройки программы : cabac=1/ref=3/deblock=1:0:0/analyse=0x3:0x113/me=hex/subme=7/psy=1/psy_rd=1.00:0.00/mixed_ref=1/me_range=16/chroma_me=1/trellis=1/8x8dct=1/cqm=0/deadzone=21, 11/fast_pskip=1/chroma_qp_offset=-2/threads=6/lookahead_threads=1/sliced_threads=0/nr=0/decimate=1/interlaced=0/bluray_compat=0/constrained_intra=0/bframes=3/b_pyramid=2/b_adapt=1/b_bias=0/direct=1/weightb=1/open_gop=0/weightp=2/keyint=24/keyint_min=2/scenecut=40/intra_refresh=0/rc_lookahead=24/rc=2pass/mbtree=1/bitrate=1980/ratetol=1.0/qcomp=0.60/qpmin=0/qpmax=69/qpstep=4/cplxblur=20.0/qblur=0.5/ip_ratio=1.40/aq=1:1.00
    Аудио
    Идентификатор : 2
    Формат : AAC
    Формат/Информация : Advanced Audio Codec
    Профиль формата : LC
    Идентификатор кодека : 40
    Продолжительность : 22 м. 3 с.
    Duration_LastFrame : -21 мс.
    Вид битрейта : Переменный
    Битрейт : 123 Кбит/сек
    Максимальный битрейт : 192 Кбит/сек
    Каналы : 2 канала
    Расположение каналов : Front: L R
    Частота : 44, 1 КГц
    Частота кадров : 43, 066 кадра/сек (1024 spf)
    Метод сжатия : С потерями
    Размер потока : 19, 4 Мбайт (6%)
    Default : Да
    Alternate group : 1


    Скриншоты для ознакомления




    Документалистика сегодня!/Documentary Now! (2016) WEB-DLRip [H.264] (сезон 2, серии 1-2 из 7) Ozz [MP4|1280x718]
    загрузка...
    Рейтинг →
     (голосов: 1, оценка 3/5, голосовать можно 1 раз )

    Другие торренты по теме:

  • Документалистика сегодня! / Documentary Now! (2016) WEB-DLRip [H.264] [MP4|1280x718]


    • Комментарии (0):

      Информация

      Информация

        Посетители, находящиеся в группе Гости, не могут оставлять комментарии в данной новости.

        ↓ Меню




        ↓ Опрос

        Вы добавили сайт в закладки?
        Да
        Нет


        Top 10 за месяц (КПК и мобильные)