.
Авторизация | Регистрация
Хочешь лучшие торренты? Добавь свой email!
Добавить

Торрент скачать бесплатно

» » Нация Z / Z Nation (2016) WEB-DL [H.264] (сезон 3, серии 1-2 из 14) LostFilm [MP4|1280x720] торрент скачать бесплатно




    Нация Z / Z Nation (2016) WEB-DL [H.264] (сезон 3, серии 1-2 из 14) LostFilm [MP4|1280x720] торрент скачать бесплатно

    Опубликовал: Админ | Дата: 30-09-2016, 04:00 | Просмотров: 39

    Производство: США
    Жанр: Экшен, Хоррор, Зомби, Апокалипсис
    Режиссер: Джон Хайамс, Тим Кокс, Дэн Мерчант
    Продюсер: Джоди Бинсток, Стив Грэхэм, Крэйг Энглер
    Актеры: Гарольд Перрино, Том Эверетт Скотт, Ди Джей Куаллс, Майкл Уэлш, Келлита Смит, Анастасия Баранова, Расселл Ходжкинсон, Кит Аллан и др.

    Описание

    Через три года после того, как стремительный зомби-вирус поразил большую часть населения США, а правительство страны было свергнуто, группа выживших взялась за выполнение смертельно опасной миссии. Чтобы спасти тех, кто еще не заразился, им необходимо доставить одного уникального гражданина из Нью-Йорка в Калифорнию. Там, на другом конце страны, предположительно находится функционирующая лаборатория с учеными, способными использовать антитела этого уникума для создания вакцины, которая поможет остановить эпидемию. Однако путешественники не подозревают, что их бесценный груз хранит страшную тайну. Его секрет может поставить под угрозу как саму миссию, так и спасение всего человечества…

    Продолжительность: ~00: 43: 00 серия (1-я серия ~01: 25: 00)
    Качество видео: WEB-DL 720p
    Перевод: Многоголосый закадровый, профессиональный -LostFilm
    Реклама: присутствует заставка и логотип LostFilm
    Видео: AVC/H.264 (High@L3.1 ), 1280x720 (16: 9), ~4000 Кбит/сек
    Аудио: AAC, 2 канала, 265 Кбит/сек - русский (многоголосый закадровый)
    Код:
    General
    Complete name : K:Z.Nation.S03E02.720p.WEB.rus.LostFilm.TV.mp4
    Format : MPEG-4
    Format profile : Base Media
    Codec ID : isom (isom)
    File size : 1.25 GiB
    Duration : 41mn 46s
    Overall bit rate mode : Variable
    Overall bit rate : 4 269 Kbps
    Collection : Нация Z
    Season : 3
    Album : Нация Z, Сезон 3
    Album/Performer : Нация Z
    Part : 2
    Part/Position : 3
    Track name : Новая миссия
    Track name/Position : 2
    Performer : Нация Z
    Genre : Sci-Fi Fantasy
    ContentType : TV Show
    Recorded date : 2016
    Encoded date : UTC 2016-09-24 16:25:33
    Tagged date : UTC 2016-09-24 16:25:33
    Writing application : Yamb 2.1.0.0 [http://yamb.unite-video.com]/LostCoder
    Copyright : LostFilm.TV (c)
    Cover : Yes
    Comment : Три года назад зомби-вирус поразил большую часть населения США, правительство страны пало. Группа выживших выполняет смертельно опасную миссию, чтобы остановить эпидемию.
    Part_ID : 302
    Video
    ID : 1
    Format : AVC
    Format/Info : Advanced Video Codec
    Format profile :High@L3.1
    Format settings, CABAC : No
    Format settings, ReFrames : 2 frames
    Codec ID : avc1
    Codec ID/Info : Advanced Video Coding
    Duration : 41mn 46s
    Bit rate : 4 000 Kbps
    Maximum bit rate : 13.2 Mbps
    Width : 1 280 pixels
    Height : 720 pixels
    Display aspect ratio : 16:9
    Frame rate mode : Variable
    Frame rate : 23.976 fps
    Minimum frame rate : 23.974 fps
    Maximum frame rate : 23.981 fps
    Color space : YUV
    Chroma subsampling : 4:2:0
    Bit depth : 8 bits
    Scan type : Progressive
    Bits/(Pixel*Frame) : 0.181
    Stream size : 1.17 GiB (94%)
    Writing library : x264 core 112 r1834 a51816a
    Encoding settings : cabac=0/ref=3/deblock=1:0:0/analyse=0x1:0x111/me=hex/subme=7/psy=1/psy_rd=1.00:0.00/mixed_ref=1/me_range=16/chroma_me=1/trellis=1/8x8dct=0/cqm=0/deadzone=21, 11/fast_pskip=1/chroma_qp_offset=-2/threads=6/sliced_threads=0/nr=0/decimate=1/interlaced=0/constrained_intra=0/bframes=3/b_pyramid=2/b_adapt=1/b_bias=0/direct=1/weightb=1/open_gop=0/weightp=2/keyint=250/keyint_min=25/scenecut=40/intra_refresh=0/rc_lookahead=40/rc=abr/mbtree=1/bitrate=4000/ratetol=1.0/qcomp=0.60/qpmin=0/qpmax=51/qpstep=4/vbv_maxrate=5000/vbv_bufsize=2000/ip_ratio=1.40/aq=1:1.00/nal_hrd=none
    Language : English
    Tagged date : UTC 2016-09-24 16:26:34
    Color range : Limited
    Color primaries : BT.709
    Transfer characteristics : BT.709
    Matrix coefficients : BT.709
    Audio
    ID : 2
    Format : AAC
    Format/Info : Advanced Audio Codec
    Format profile : LC
    Codec ID : 40
    Duration : 41mn 46s
    Bit rate mode : Variable
    Bit rate : 265 Kbps
    Maximum bit rate : 349 Kbps
    Channel(s) : 2 channels
    Channel positions : Front: L R
    Sampling rate : 48.0 KHz
    Frame rate : 46.875 fps (1024 spf)
    Compression mode : Lossy
    Stream size : 79.4 MiB (6%)
    Encoded date : UTC 2016-09-24 16:26:32
    Tagged date : UTC 2016-09-24 16:26:34


    Скриншоты для ознакомления




    Нация Z/Z Nation (2016) WEB-DL [H.264] (сезон 3, серии 1-2 из 14) LostFilm [MP4|1280x720]
    загрузка...
    Рейтинг →
     (голосов: 1, оценка 5/5, голосовать можно 1 раз )

    Другие торренты по теме:

  • Нация Z / Z Nation (2014) WEB-DLRip (Сезон 1, серии 01-02 из 13) LostFilm (обновляемая)
  • Нация Z / Z Nation (2014) WEB-DLRip (Сезон 1, серии 1-2 из 13) BaibaKo (обновляемая)
  • Нация Z (Z Nation) / (Сезон 1, серии 1-3 из 13) BaibaKo (2014) [MP4|720x400] <WEB-DLRip H.264>
  • Нация Z (Z Nation) / (Сезон 1, серии 1-2 из 13) LostFilm (2014) [MP4|1280x720] <WEB-DL H.264>
  • Нация Z / Z Nation (2014) WEB-DL [H.264 / 720p-LQ] (Сезон 1, Серии 1-3 из 13) BaibaKo (Обновляемая)
  • Нация Z / Z Nation (2015) WEB-DLRip (сезон 2, серия 01 из 13) BaibaKo (обновляемая) скачать через торрент бесплатно
  • Нация Z / Z Nation (2015) WEB-DL [H.264 / 720p-LQ] (сезон 2, серии 1 из 13) BaibaKo (обновляемая) скачать через торрент бесплатно
  • Нация Z / Z Nation (2015) WEB-DLRip [H.264] (Сезон 2, серия 1 из 13) BaibaKo [MP4|720x400] скачать через торрент бесплатно


    • Комментарии (0):

      Информация

      Информация

        Посетители, находящиеся в группе Гости, не могут оставлять комментарии в данной новости.

        ↓ Меню




        ↓ Опрос

        Вы добавили сайт в закладки?
        Да
        Нет


        Top 10 за месяц (КПК и мобильные)