.
Авторизация | Регистрация
Хочешь лучшие торренты? Добавь свой email!
Добавить

Торрент скачать бесплатно

» » Пришельцы 3: Взятие Бастилии / Les Visiteurs: La Révolution (2016) HDRip [H.264] [MP4|1152x480] торрент скачать бесплатно




    Пришельцы 3: Взятие Бастилии / Les Visiteurs: La Révolution (2016) HDRip [H.264] [MP4|1152x480] торрент скачать бесплатно

    Опубликовал: Админ | Дата: 16-09-2016, 04:00 | Просмотров: 28

    Производство: Франция/Gaumont
    Жанр: Приключения, Драма, Фэнтези
    Режиссер: Жан-Мари Пуаре
    Актеры: Кристиан Клавье, Жан Рено, Франк Дюбоск, Карин Вьяр, Мари-Анн Шазель и другие.

    Описание

    Фильм является сюжетным продолжением фильмов Пришельцы и Пришельцы 2: Коридоры времени, и повествует о дальнейших скитаниях во Времени графа Годфруа де Монмирай и его оруженосца Жакуя.

    Дата мировой премьеры: 6 апреля 2016
    Дата российской премьеры: 7 апреля 2016
    Возраст: 12+ (зрителям, достигшим 12 лет)
    Рейтинг MPAA: PG-13 (детям до 13 лет просмотр нежелателен)
    Релиз от: bktop
    Продолжительность: 01: 45: 26
    Качество видео: HDRip
    Перевод: Дублированный -Мосфильм-Мастер
    Видео: AVC/H.264, 1152x480 (2.4: 1), ~1850 Kbps
    Аудио: AAC, 2 ch, 160 Kbps
    Код:

    Format : MPEG-4
    Format profile : Base Media/Version 2
    Codec ID : mp42 (isom/iso2/avc1/mp41)
    File size : 1.48 GiB
    Duration : 1h 45mn
    Overall bit rate mode : Variable
    Overall bit rate : 2 014 Kbps
    Video
    ID : 1
    Format : AVC
    Format/Info : Advanced Video Codec
    Format profile : High@L4
    Format settings, CABAC : Yes
    Format settings, ReFrames : 4 frames
    Codec ID : avc1
    Codec ID/Info : Advanced Video Coding
    Duration : 1h 45mn
    Bit rate : 1 850 Kbps
    Width : 1 152 pixels
    Height : 480 pixels
    Display aspect ratio : 2.40:1
    Frame rate mode : Variable
    Frame rate : 24.952 fps
    Minimum frame rate : 0.163 fps
    Maximum frame rate : 25.000 fps
    Color space : YUV
    Chroma subsampling : 4:2:0
    Bit depth : 8 bits
    Scan type : Progressive
    Bits/(Pixel*Frame) : 0.134
    Stream size : 1.36 GiB (92%)
    Writing library : x264 core 142 r2479 dd79a61
    Encoding settings : cabac=1/ref=1/deblock=1:0:0/analyse=0x3:0x113/me=hex/subme=2/psy=1/psy_rd=1.00:0.00/mixed_ref=0/me_range=16/chroma_me=1/trellis=0/8x8dct=1/cqm=0/deadzone=21, 11/fast_pskip=1/chroma_qp_offset=0/threads=12/lookahead_threads=3/sliced_threads=0/nr=0/decimate=1/interlaced=0/bluray_compat=0/constrained_intra=0/bframes=3/b_pyramid=2/b_adapt=1/b_bias=0/direct=1/weightb=1/open_gop=0/weightp=1/keyint=250/keyint_min=25/scenecut=40/intra_refresh=0/rc_lookahead=10/rc=2pass/mbtree=1/bitrate=1850/ratetol=1.0/qcomp=0.60/qpmin=0/qpmax=69/qpstep=4/cplxblur=20.0/qblur=0.5/vbv_maxrate=25000/vbv_bufsize=31250/nal_hrd=none/filler=0/ip_ratio=1.40/aq=1:1.00
    Encoded date : UTC 2016-09-15 12:32:22
    Tagged date : UTC 2016-09-15 12:32:22
    Color range : Limited
    Color primaries : BT.709
    Transfer characteristics : BT.709
    Matrix coefficients : BT.709
    Audio
    ID : 2
    Format : AAC
    Format/Info : Advanced Audio Codec
    Format profile : LC
    Codec ID : 40
    Duration : 1h 45mn
    Bit rate mode : Variable
    Bit rate : 160 Kbps
    Channel(s) : 2 channels
    Channel positions : Front: L R
    Sampling rate : 48.0 KHz
    Frame rate : 46.875 fps (1024 spf)
    Compression mode : Lossy
    Stream size : 121 MiB (8%)
    Title : Stereo/Stereo
    Language : English
    Default : Yes
    Alternate group : 1


    Скриншоты для ознакомления




    Пришельцы 3: Взятие Бастилии/Les Visiteurs: La Révolution (2016) HDRip [H.264] [MP4|1152x480]
    загрузка...
    Рейтинг →
     (голосов: 1, оценка 3/5, голосовать можно 1 раз )

    Другие торренты по теме:

  • Пришельцы 3: Взятие Бастилии / Les Visiteurs: La Revolution (2016) BDRip [H.264 / 720p-LQ] [звук c CamRip]
  • Пришельцы 3: Взятие Бастилии / Les Visiteurs: La Revolution (2016) BDRip [H.264 / 1080p] [FR / FR Sub]
  • Пришельцы 3: Взятие Бастилии / Les Visiteurs: La Revolution (2016) BDRip [H.264 / 1080p] [звук c CamRip]
  • Пришельцы 3: Взятие Бастилии / Les Visiteurs: La Revolution (2016) HDRip
  • Пришельцы 3: Взятие Бастилии / Les Visiteurs: La Revolution (2016) HDRip
  • Пришельцы 3: Взятие Бастилии / Les Visiteurs: La Rvolution (2016) HDRip [Line]
  • Пришельцы 3: Взятие Бастилии / Les Visiteurs: La Revolution (2016) BDRip [H.264 / 1080p] [Line]
  • Пришельцы 3: Взятие Бастилии / Les Visiteurs: La Revolution (2016) WEBRip [H.264] [MP4|1920x800]


    • Комментарии (0):

      Информация

      Информация

        Посетители, находящиеся в группе Гости, не могут оставлять комментарии в данной новости.

        ↓ Меню




        ↓ Опрос

        Вы добавили сайт в закладки?
        Да
        Нет


        Top 10 за месяц (КПК и мобильные)