.
Авторизация | Регистрация
Хочешь лучшие торренты? Добавь свой email!
Добавить

Торрент скачать бесплатно

» » С.А. Ламзин. Лекция «Как худеют звезды» (2014) WEBRip [H.264] [MP4|1280x720] торрент скачать бесплатно




    С.А. Ламзин. Лекция «Как худеют звезды» (2014) WEBRip [H.264] [MP4|1280x720] торрент скачать бесплатно

    Опубликовал: Админ | Дата: 14-09-2016, 04:00 | Просмотров: 29

    Жанр: Лекция, Документальный
    Ведущий: С.А. Ламзин

    Описание

    Лекция из цикла Трибуна ученого, которую прочитал доктор физико-математических наук, заместитель директора Государственного астрономического института имени П.К. Штернберга МГУ Сергей Анатольевич Ламзин.
    Сергей Анатольевич подробно рассказал о строении и эволюции звезд, о процессах происходящих внутри самых разных звезд – от звезд меньше массы Солнца в десятки раз и звезд в сотни раз превышающих массу нашего Солнца.
    Продолжительность: 01: 27: 08
    Качество видео: WEBRip
    Видео: AVC/H.264, 1280x720 (16: 9), ~408 Кбит/сек
    Аудио: AAC, 2 ch, 126 Кбит/сек, VBR
    Код:

    Формат : MPEG-4
    Профиль формата : Base Media/Version 2
    Идентификатор кодека : mp42 (isom/mp42)
    Размер файла : 334 Мбайт
    Продолжительность : 1 ч. 27 м.
    Режим общего битрейта : Переменный
    Общий поток : 537 Кбит/сек
    Дата кодирования : UTC 2016-08-15 11:27:36
    Дата пометки : UTC 2016-08-15 11:27:36
    gsst : 0
    gstd : 5228622
    Видео
    Идентификатор : 1
    Формат : AVC
    Формат/Информация : Advanced Video Codec
    Профиль формата :Main@L3.1
    Параметр CABAC формата : Да
    Параметр ReFrames формата : 3 кадра
    Идентификатор кодека : avc1
    Идентификатор кодека/Информация : Advanced Video Coding
    Продолжительность : 1 ч. 27 м.
    Duration_LastFrame : -39 мс.
    Битрейт : 408 Кбит/сек
    Ширина : 1280 пикселей
    Высота : 720 пикселей
    Соотношение сторон : 16:9
    Режим частоты кадров : Постоянный
    Частота кадров : 25, 000 кадров/сек
    Цветовое пространство : YUV
    Субдискретизация насыщенности : 4:2:0
    Битовая глубина : 8 бит
    Тип развёртки : Прогрессивная
    Бит/(Пиксели*Кадры) : 0.018
    Размер потока : 254 Мбайт (76%)
    Заголовок : ISO Media file produced by Google Inc.
    Дата кодирования : UTC 2016-08-15 11:27:36
    Дата пометки : UTC 2016-08-15 11:27:36
    Аудио
    Идентификатор : 2
    Формат : AAC
    Формат/Информация : Advanced Audio Codec
    Профиль формата : LC
    Идентификатор кодека : 40
    Продолжительность : 1 ч. 27 м.
    Вид битрейта : Переменный
    Битрейт : 126 Кбит/сек
    Каналы : 2 канала
    Расположение каналов : Front: L R
    Частота : 44, 1 КГц
    Частота кадров : 43, 066 кадра/сек (1024 spf)
    Метод сжатия : С потерями
    Размер потока : 78, 3 Мбайт (23%)


    Скриншоты для ознакомления




    С.А. Ламзин. Лекция «Как худеют звезды» (2014) WEBRip [H.264] [MP4|1280x720]
    загрузка...
    Рейтинг →
     (голосов: 1, оценка 4/5, голосовать можно 1 раз )

    Другие торренты по теме:

  • С.А. Ламзин. Лекция "Голубые Бродяги Звездного Мира" (2015) WEBRip [H.264] [MP4|1920х1080]


    • Комментарии (0):

      Информация

      Информация

        Посетители, находящиеся в группе Гости, не могут оставлять комментарии в данной новости.

        ↓ Меню




        ↓ Опрос

        Вы добавили сайт в закладки?
        Да
        Нет


        Top 10 за месяц (КПК и мобильные)