.
Авторизация | Регистрация
Хочешь лучшие торренты? Добавь свой email!
Добавить

Торрент скачать бесплатно

» » Кулинарные поединки Сомы: Второе блюдо / Shokugeki no Soma: The Second Plate (2016) HDTVRip [H.264] (сезон 2, серии 1-11 из 13) RЕFЕRО [MP4|1280x720] торрент скачать бесплатно




    Кулинарные поединки Сомы: Второе блюдо / Shokugeki no Soma: The Second Plate (2016) HDTVRip [H.264] (сезон 2, серии 1-11 из 13) RЕFЕRО [MP4|1280x720] торрент скачать бесплатно

    Опубликовал: Админ | Дата: 14-09-2016, 04:00 | Просмотров: 31

    Производство: Япония/J.C. Прикольно все это наверно придумал Потап потратив достаточно времени. Staff
    Жанр: Анимация, Комедия
    Режиссер: Ёнэтани Ёситомо
    |AniDB |World Art |MAL |ANN |

    Описание

    Продолжение истории о невероятном обучении и жизни Юкихиро Сомы в элитной кулинарной академии. Что же ждёт в дальнейшем нашего героя и его друзей? Сможет ли он пробиться на Олимп и доказать всем, что он самый искусный кулинар нашего времени. Сможет ли превзойти отца и уберечь семейный ресторанчик? А так же стереть самодовольную улыбку с лица Эрины Накири, которая является лучшим дегустатором и занозой в одном месте. Которая скрывает, что на самом деле считает готовку Сомы превосходной и продолжает задирать нос, всячески стараясь сунуть палки в колеса пользуясь тем, что её дед глава Пищевой Мафии и Директор академии. Сможет ли Сома доказать ей, что даже такой простолюдин как он может превзойти в готовке первоклассных шеф-поваров? Да и вообще чем же закончится эта солянка...
    Продолжительность: ~ 00: 24: 00 серия
    Качество видео: HDTVRip
    Перевод/Лирика: LеDі-MаHо Tеаm
    Озвучка: Двуголосый закадровый -RЕFЕRО
    Язык субтитров: Русский (надписи)
    Вид субтитров: Вшитые (отключаемые)
    Видео: AVC/H.264, 1280x720 (16: 9), ~1776 Кбит/сек
    Аудио: AAC, 2 ch, 140 Кбит/сек, VBR - русский (двуголосый закадровый)
    Код:

    Формат : MPEG-4
    Профиль формата : Base Media
    Идентификатор кодека : isom (isom/avc1/iso2)
    Размер файла : 333 Мбайт
    Продолжительность : 24 м.
    Режим общего битрейта : Переменный
    Общий поток : 1914 Кбит/сек
    Дата кодирования : UTC 2016-09-13 11:54:37
    Дата пометки : UTC 2016-09-13 11:54:52
    Обложка : Yes
    Видео
    Идентификатор : 1
    Формат : AVC
    Формат/Информация : Advanced Video Codec
    Профиль формата : High@L4
    Параметр CABAC формата : Да
    Параметр ReFrames формата : 6 кадров
    Идентификатор кодека : avc1
    Идентификатор кодека/Информация : Advanced Video Coding
    Продолжительность : 24 м.
    Битрейт : 1776 Кбит/сек
    Максимальный битрейт : 7056 Кбит/сек
    Ширина : 1280 пикселей
    Высота : 720 пикселей
    Соотношение сторон : 16:9
    Режим частоты кадров : Постоянный
    Частота кадров : 23, 976 (24000/1001) кадра/сек
    Частота кадров в оригинале : 23, 976 (23976/1000) кадра/сек
    Цветовое пространство : YUV
    Субдискретизация насыщенности : 4:2:0
    Битовая глубина : 8 бит
    Тип развёртки : Прогрессивная
    Бит/(Пиксели*Кадры) : 0.080
    Размер потока : 308 Мбайт (92%)
    Библиотека кодирования : x264 core 120 r2120 0c7dab9
    Настройки программы : cabac=1/ref=6/deblock=1:1:1/analyse=0x3:0x113/me=umh/subme=8/psy=1/psy_rd=0.40:0.00/mixed_ref=1/me_range=16/chroma_me=1/trellis=1/8x8dct=1/cqm=0/deadzone=21, 11/fast_pskip=1/chroma_qp_offset=-2/threads=4/sliced_threads=0/nr=0/decimate=1/interlaced=0/bluray_compat=0/constrained_intra=0/bframes=3/b_pyramid=2/b_adapt=2/b_bias=0/direct=3/weightb=1/open_gop=0/weightp=2/keyint=250/keyint_min=23/scenecut=40/intra_refresh=0/rc_lookahead=50/rc=2pass/mbtree=1/bitrate=1776/ratetol=1.0/qcomp=0.60/qpmin=0/qpmax=69/qpstep=4/cplxblur=20.0/qblur=0.5/vbv_maxrate=3552/vbv_bufsize=8880/nal_hrd=none/ip_ratio=1.40/aq=1:0.60
    Язык : English
    Дата кодирования : UTC 2016-09-13 11:54:37
    Дата пометки : UTC 2016-09-13 11:54:43
    Аудио
    Идентификатор : 2
    Формат : AAC
    Формат/Информация : Advanced Audio Codec
    Профиль формата : LC
    Идентификатор кодека : 40
    Продолжительность : 24 м.
    Вид битрейта : Переменный
    Битрейт : 140 Кбит/сек
    Максимальный битрейт : 200 Кбит/сек
    Каналы : 2 канала
    Расположение каналов : Front: L R
    Частота : 48, 0 КГц
    Частота кадров : 46, 875 кадров/сек (1024 spf)
    Метод сжатия : С потерями
    Размер потока : 24, 3 Мбайт (7%)
    Заголовок : Russian
    Язык : Russian
    Дата кодирования : UTC 2016-09-13 11:53:51
    Дата пометки : UTC 2016-09-13 11:54:43
    Текст
    Идентификатор : 3
    Формат : Timed Text
    Режим смешивания : sbtl
    Идентификатор кодека : tx3g
    Продолжительность : 24 м.
    Вид битрейта : Переменный
    Битрейт : 8 бит/сек
    Размер потока : 1, 49 Кбайт (0%)
    Заголовок : Nadpisi
    Язык : Russian
    Forced : Нет


    Скриншоты для ознакомления




    Кулинарные поединки Сомы: Второе блюдо/Shokugeki no Soma: The Second Plate (2016) HDTVRip [H.264] (сезон 2, серии 1-11 из 13) RЕFЕRО [MP4|1280x720]
    загрузка...
    Рейтинг →
     (голосов: 1, оценка 5/5, голосовать можно 1 раз )

    Другие торренты по теме:

  • Shokugeki no Souma / Кулинарные поединки Сомы [2015, TV, 1 из 13 ep] WEBRip 720p Raw скачать через торрент бесплатно
  • Shokugeki no Souma / Food Wars! Shokugeki no Soma / Кулинарные поединки Сомы [2015, TV, 24] HDTV 720p Raw + rus скачать через торрент бесплатно
  • Shokugeki no Souma: Ni no Sara / Shokugeki no Soma: The Second Plate / Кулинарные поединки Сомы: Второе блюдо [ТВ-2] [2016, TV, 1 из 13 ep] WEBRip 720p Raw
  • Shokugeki no Souma: Ni no Sara / Кулинарные Поединки Сомы: Второе Блюдо TV-2 [2016, TV, 2 из 13] HDTV 720p raw + rus
  • Shokugeki no Souma | Food Wars! Shokugeki no Soma | Кулинарные поединки Сомы [ТВ-1] [2015, TV, 24] BDrip 1080p Hi10p raw


    • Комментарии (0):

      Информация

      Информация

        Посетители, находящиеся в группе Гости, не могут оставлять комментарии в данной новости.

        ↓ Меню




        ↓ Опрос

        Вы добавили сайт в закладки?
        Да
        Нет


        Top 10 за месяц (КПК и мобильные)