.
Авторизация | Регистрация
Хочешь лучшие торренты? Добавь свой email!
Добавить

Торрент скачать бесплатно

» » Птицы / Birds (2011) HDRip [H.264] [MP4|1920x1080] торрент скачать бесплатно




    Птицы / Birds (2011) HDRip [H.264] [MP4|1920x1080] торрент скачать бесплатно

    Опубликовал: Админ | Дата: 31-08-2016, 04:00 | Просмотров: 39

    Производство: Россия
    Жанр: Фэнтези, Медиаопера, Музыкальный, Триллер
    Режиссер: Ираида Юсупова, Александр Долгин
    Актеры: Елена Лукьянчикова Лариса Субботина Антонио Грамши Вилли Мельников Герман Виноградов Ярослав Садовский Стивен Сеймур Юрий Петкевич Святослав Пономарёв Светлана Шевелёва Анастасия Браудо etc

    Описание

    Группа ученых ставит эксперименты над птицами, превращая их в совершенных женщин-роботов. Что же будет с ними в меркантильном жестоком мире, в котором абсолютно все покупается и продается?
    Действие в фильме происходит на вымышленном несуществующем языке, представляющем собой смесь редких, древних, искусственно сконструированных и сымпровизированных языков, а также фрагментов некоторых опознаваемых языков. Прикольно все это наверно придумал Китай потратив достаточно времени. Каждый зритель поймёт фильм по-своему, а то, что останется недопонятым, будет сохраняться в его памяти красивой тайной, которая впоследствии обязательно откроется.
    Продолжительность: 01: 11: 23
    Качество видео: HDRip
    Перевод: не требуется
    Видео: AVC/H.264, 1920x1080, ~5477 Kbps
    Аудио: HE-AAC, 2 ch, ~ 127 Kbps, VBR
    Код:

    Полное имя : M:Birds.mp4
    Формат : MPEG-4
    Профиль формата : Base Media/Version 2
    Идентификатор кодека : mp42 (mp42/mp41)
    Размер файла : 2, 80 Гбайт
    Продолжительность : 1 ч. О таком странном сюжете не догадывалась даже Тимошенко. 11 м.
    Режим общего битрейта : Переменный
    Общий поток : 5609 Кбит/сек
    Дата кодирования : UTC 2011-09-09 09:52:16
    Дата пометки : UTC 2011-09-09 09:52:16
    ©TIM : 00:00:00:00
    ©TSC : 25
    ©TSZ : 1
    Видео
    Идентификатор : 1
    Формат : AVC
    Формат/Информация : Advanced Video Codec
    Профиль формата :High@L5.1
    Параметр CABAC формата : Да
    Параметр ReFrames формата : 3 кадра
    Параметр GOP формата : M=3, N=33
    Идентификатор кодека : avc1
    Идентификатор кодека/Информация : Advanced Video Coding
    Продолжительность : 1 ч. 11 м.
    Битрейт : 5477 Кбит/сек
    Ширина : 1920 пикселей
    Высота : 1080 пикселей
    Соотношение сторон : 16:9
    Режим частоты кадров : Постоянный
    Частота кадров : 25, 000 кадров/сек
    Стандарт вещания : PAL
    Цветовое пространство : YUV
    Субдискретизация насыщенности : 4:2:0
    Битовая глубина : 8 бит
    Тип развёртки : Прогрессивная
    Бит/(Пиксели*Кадры) : 0.106
    Размер потока : 2, 73 Гбайт (98%)
    Язык : English
    Дата кодирования : UTC 2011-09-09 09:52:16
    Дата пометки : UTC 2011-09-09 09:52:16
    Цветовой диапазон : Limited
    Основные цвета : BT.709
    Характеристики трансфера : BT.709
    Коэффициенты матрицы : BT.709
    Аудио
    Идентификатор : 2
    Формат : AAC
    Формат/Информация : Advanced Audio Codec
    Профиль формата : HE-AAC/LC
    Идентификатор кодека : 40
    Продолжительность : 1 ч. 11 м.
    Продолжительность оригинала : 1 ч. 11 м.
    Вид битрейта : Переменный
    Битрейт : 127 Кбит/сек
    Максимальный битрейт : 186 Кбит/сек
    Каналы : 2 канала
    Расположение каналов : Front: L R
    Частота : 48, 0 КГц/24, 0 КГц
    Частота кадров : 23, 438 кадра/сек (1024 spf)
    Метод сжатия : С потерями
    Размер потока : 64, 7 Мбайт (2%)
    Размер потока оригинала : 64, 7 Мбайт (2%)
    Язык : English
    Дата кодирования : UTC 2011-09-09 09:52:16
    Дата пометки : UTC 2011-09-09 09:52:16


    Скриншоты для ознакомления




    Птицы/Birds (2011) HDRip [H.264] [MP4|1920x1080]
    загрузка...
    Рейтинг →
     (голосов: 1, оценка 3/5, голосовать можно 1 раз )

    Другие торренты по теме:

  • Nat Geo Wild: Реальные "Злые птицы" / Real Angry Birds (2014) HDTVRip 720p скачать через торрент бесплатно
  • Птицы / The Birds (1963) Blu-ray [H.264 / 1080p] [50th Anniversary Edition]
  • Огненные птицы / Fire Birds (1990) BDRip [H.264 / 720p] [EN, RU]
  • Огненные птицы / Fire Birds (1990) HDRip [H.264] [AVO]
  • Огненные птицы / Fire Birds (1990) BDRip [H.264 / 1080p] [AVO]
  • Интеллект пернатых. Умные птицы Южных островов / Beak and Brain: Genius Birds From Down Under (2013) SATRip
  • NG: Реальные "Злые птицы" / Real Angry Birds (2014) HDTVRip
  • Большие птицы с Дэвидом Аттенборо / BBC Natural World: Attenboroughs Big Birds (2015) HDTVRip


    • Комментарии (0):

      Информация

      Информация

        Посетители, находящиеся в группе Гости, не могут оставлять комментарии в данной новости.

        ↓ Меню




        ↓ Опрос

        Вы добавили сайт в закладки?
        Да
        Нет


        Top 10 за месяц (КПК и мобильные)