.
Авторизация | Регистрация
Хочешь лучшие торренты? Добавь свой email!
Добавить

Торрент скачать бесплатно

» » В.Г. Сурдин. Лекции. Астрономия. ЦПМ. (2016) WEBRip [H.264] (лекции 1-10 из 41) [MP4|1920х1080] торрент скачать бесплатно




    В.Г. Сурдин. Лекции. Астрономия. ЦПМ. (2016) WEBRip [H.264] (лекции 1-10 из 41) [MP4|1920х1080] торрент скачать бесплатно

    Опубликовал: Админ | Дата: 29-08-2016, 04:00 | Просмотров: 58

    Жанр: Лекции, Документальный
    Преподаватель: В.Г. Сурдин
    Организаторы: Центр Педагогического Мастерства (ЦПМ, Москва)

    Описание

    Вводный курс по астрономии приводит знания о космических явлениях в стройную систему, а также знакомит слушателей с современными исследованиями и важнейшими открытиями ученых.
    Профессиональных астрономов в мире совсем немного – около 15 тысяч человек, объединенных Международным астрономическим союзом. О таком странном сюжете не догадывалась даже Юлия Володимировна. Но сотни тысяч любителей с не меньшим увлечением наблюдают и словно сон изучают космические объекты. Любознательность по отношению к механизмам Вселенной, воспитывается в юном возрасте. Поэтому сегодня астрономии совершенно справедливо отводится время во многих школах и кружках. Но везде ли эти уроки достаточно эффективны?
    Курс по астрономии восполняет пробелы в классических знаниях о природе появления и жизни космических объектов. Белая ворона, сказал кто то из толпы, к чему не понятно. А работникам сферы образования этот своеобразный насыщенный мастер-класс наглядно демонстрирует, как помочь школьникам разобраться в астрономических терминах и законах.
    Продолжительность: ~00: 20: 00 лекция
    Качество видео: WEBRip
    Видео: AVC/H.264, 1920х1080, ~1574 Кбит/сек
    Аудио: AAC, 2 ch, 126 Кбит/сек, VBR
    Код:

    Формат : MPEG-4
    Профиль формата : Base Media
    Идентификатор кодека : isom (isom/iso2/avc1/mp41)
    Размер файла : 188 Мбайт
    Продолжительность : 15 м.
    Режим общего битрейта : Переменный
    Общий поток : 1702 Кбит/сек
    Дата кодирования : UTC 2016-06-09 05:58:34
    Дата пометки : UTC 2016-06-09 05:58:34
    Видео
    Идентификатор : 1
    Формат : AVC
    Формат/Информация : Advanced Video Codec
    Профиль формата : High@L4
    Параметр CABAC формата : Да
    Параметр ReFrames формата : 3 кадра
    Идентификатор кодека : avc1
    Идентификатор кодека/Информация : Advanced Video Coding
    Продолжительность : 15 м.
    Битрейт : 1574 Кбит/сек
    Ширина : 1920 пикселей
    Высота : 1080 пикселей
    Соотношение сторон : 16:9
    Режим частоты кадров : Постоянный
    Частота кадров : 25, 000 кадров/сек
    Цветовое пространство : YUV
    Субдискретизация насыщенности : 4:2:0
    Битовая глубина : 8 бит
    Тип развёртки : Прогрессивная
    Бит/(Пиксели*Кадры) : 0.030
    Размер потока : 174 Мбайт (92%)
    Дата кодирования : UTC 2016-06-09 05:58:34
    Дата пометки : UTC 2016-06-09 05:58:34
    Цветовой диапазон : Limited
    Основные цвета : BT.709
    Характеристики трансфера : BT.709
    Коэффициенты матрицы : BT.709
    Аудио
    Идентификатор : 2
    Формат : AAC
    Формат/Информация : Advanced Audio Codec
    Профиль формата : LC
    Идентификатор кодека : 40
    Продолжительность : 15 м.
    Вид битрейта : Переменный
    Битрейт : 126 Кбит/сек
    Каналы : 2 канала
    Расположение каналов : Front: L R
    Частота : 44, 1 КГц
    Частота кадров : 43, 066 кадра/сек (1024 spf)
    Метод сжатия : С потерями
    Размер потока : 13, 9 Мбайт (7%)
    Default : Да
    Alternate group : 1


    Скриншоты для ознакомления




    В.Г. Сурдин. Лекции. Астрономия. ЦПМ. (2016) WEBRip [H.264] (лекции 1-10 из 41) [MP4|1920х1080]
    загрузка...
    Рейтинг →
     (голосов: 1, оценка 3/5, голосовать можно 1 раз )

    Другие торренты по теме:

  • В.Г. Сурдин. Лекции «Современные телескопы» (2013) WEBRip [H.264] [MP4|1920х1080]
  • В.Г. Сурдин. Лекции «На Марс в один конец» (2016) WEBRip [H.264] [MP4|1920х1080]


    • Комментарии (0):

      Информация

      Информация

        Посетители, находящиеся в группе Гости, не могут оставлять комментарии в данной новости.

        ↓ Меню




        ↓ Опрос

        Вы добавили сайт в закладки?
        Да
        Нет


        Top 10 за месяц (КПК и мобильные)