.
Авторизация | Регистрация
Хочешь лучшие торренты? Добавь свой email!
Добавить

Торрент скачать бесплатно

» » Горбун / Le bossu (1959) BDRip [H.264] Союзмультфильм, В.Абдулов [MP4|1024x436] торрент скачать бесплатно




    Горбун / Le bossu (1959) BDRip [H.264] Союзмультфильм, В.Абдулов [MP4|1024x436] торрент скачать бесплатно

    Опубликовал: Админ | Дата: 25-08-2016, 04:00 | Просмотров: 49

    Производство: Франция, Италия, Globe Films International, P.A.C.
    Жанр: Боевик, Приключения
    Режиссер: Андре Юнебель
    Актеры: Жан Маре, Бурвиль, Сабина Сесельманн, Жан ле Пулен, Юбер Ноэль

    Описание

    Эта история началась в 1701 году, когда Францией правил Король-Солнце Людовик XIV. Шевалье Ля Гардер спасает от расправы слуг герцога де Гонзага дочь смертельно раненного принца Филипа Де Невера и скрывается с грудным ребенком от преследования в Испании. Он и его верный слуга Паспуаль воспитывают девочку Аврору в течение пятнадцати лет. В 1716 году, вернувшись в Париж, шевалье переодевается горбуном, чтобы войти в доверие к высокопоставленным вельможам во дворце короля, ведь его горб приносит счастье. Благодаря своей хитрости, умению перевоплощаться и острому клинку шпаги, герой разрушает все коварные замыслы врагов и спасает честь семьи своей приемной дочери...

    Возраст: 6+ (зрителям, достигшим 6 лет)
    Продолжительность: 01: 44: 50
    Качество видео: BDRip
    Перевод: Дублированный -Союзмультфильм , одноголосый закадровый -Всеволод Абдулов
    Язык субтитров: Французский
    Вид субтитров: Вшитые
    Видео: AVC/H.264 (Main@L3.1 ), 1024x436 (2.35: 1), 1900 Кбит/сек
    Аудио #1: AAC, 2 канала, 128 Кбит/сек - русский (дублированный)
    Аудио #2: AAC, 2 канала, 128 Кбит/сек - французский (оригинальный)
    Код:

    General
    Complete name : C:CREATE264mod1out1Le.bossu.1959.576p.BDRip.AAC.x264.mp4
    Format : MPEG-4
    Format profile : Base Media/Version 2
    Codec ID : mp42 (mp42/isom)
    File size : 1.68 GiB
    Duration : 1h 44mn
    Overall bit rate mode : Variable
    Overall bit rate : 2 294 Kbps
    Movie name : The Hunchback of Paris
    Performer : André Hunebelle
    Director : André Hunebelle
    Actor : Jean Marais/Bourvil/Sabine Sesselmann/François Chaumette/Jean Le Poulain/Hubert Noël/Paulette Dubost/Edmond Beauchamp/Alexandre Rignault/Paul Cambo/Georges Douking/Annie Anderson
    Genre : Action, Adventure
    ContentType : Short Film
    Description : Duke Philippe de Nevers is an influential and popular man who is married to a beautiful wife called Aurore. His rival Philippe de Gonzague hates him enough to organise an attempt on him. The Duke is accompagnied by Henri de Lagardère when de Gonzague\'s henchmen altogether attack him. Lagardère cannot save his friend because the both of them are hopelessly outnumbered. He has to escape in order to save the Duke\'s daughter and swears revenge. Together with his old buddy Passepoil he raises the little girl in Spain. At the same time he returns frequently to France where he detects confronts his friend\'s murderers and puts them to the sword one by one until only their former leader is left. Finally he discovers that Philippe de Gonzague is the man for whom he is looking.
    Recorded date : 1959-11-26
    Encoded date : UTC 2016-08-23 20:59:20
    Tagged date : UTC 2016-08-23 21:15:49
    Cover : Yes
    Rating : None
    LongDescription : Duke Philippe de Nevers is an influential and popular man who is married to a beautiful wife called Aurore. His rival Philippe de Gonzague hates him enough to organise an attempt on him. The Duke is accompagnied by Henri de Lagardère when de Gonzague\'s henchmen altogether attack him. Lagardère cannot save his friend because the both of them are hopelessly outnumbered. He has to escape in order to save the Duke\'s daughter and swears revenge. Прикольно все это наверно придумал Халк потратив достаточно времени. Together with his old buddy Passepoil he raises the little girl in Spain. О таком странном сюжете не догадывалась даже Бритни Спирс. At the same time he returns frequently to France where he detects confronts his friend\'s murderers and puts them to the sword one by one until only their former leader is left. Finally he discovers that Philippe de Gonzague is the man for whom he is looking.
    ContentRating : mpaa|Unrated|???|
    Video
    ID : 1
    Format : AVC
    Format/Info : Advanced Video Codec
    Format profile :Main@L3.1
    Format settings, CABAC : No
    Format settings, ReFrames : 3 frames
    Codec ID : avc1
    Codec ID/Info : Advanced Video Coding
    Duration : 1h 44mn
    Source duration : 1h 44mn
    Bit rate : 1 900 Kbps
    Width : 1 024 pixels
    Height : 436 pixels
    Display aspect ratio : 2.35:1
    Frame rate mode : Variable
    Frame rate : 24.000 fps
    Minimum frame rate : 23.810 fps
    Maximum frame rate : 24.390 fps
    Color space : YUV
    Chroma subsampling : 4:2:0
    Bit depth : 8 bits
    Scan type : Progressive
    Bits/(Pixel*Frame) : 0.177
    Stream size : 1.39 GiB (83%)
    Source stream size : 1.39 GiB (83%)
    Writing library : x264 core 148 r2705+54 9f484c1 t_mod_Custom [8-bit@all X86_64]
    Encoding settings : cabac=0/ref=3/deblock=1:-3:-3/analyse=0x1:0x111/me=umh/subme=8/psy=1/fade_compensate=0.00/psy_rd=1.00:0.20/mixed_ref=1/me_range=32/chroma_me=1/trellis=2/8x8dct=0/cqm=0/deadzone=21, 11/fast_pskip=0/chroma_qp_offset=-3/threads=14/lookahead_threads=2/sliced_threads=0/nr=0/decimate=0/interlaced=0/bluray_compat=0/constrained_intra=0/fgo=0/bframes=3/b_pyramid=1/b_adapt=2/b_bias=0/direct=3/weightb=1/open_gop=0/weightp=2/keyint=240/keyint_min=24/scenecut=40/intra_refresh=0/rc_lookahead=50/rc=2pass/mbtree=1/bitrate=1900/ratetol=1.0/qcomp=0.60/qpmin=0:0:0/qpmax=69:69:69/qpstep=4/cplxblur=20.0/qblur=0.5/vbv_maxrate=14000/vbv_bufsize=14000/nal_hrd=none/filler=0/ip_ratio=1.20/aq=3:0.70/aq-sensitivity=10.00/aq-factor=1.00:1.00:1.00/aq2=1:0.90/aq2-sensitivity=15.00/aq2-factor=1.00:1.00:1.00/aq3=4:[0.50:0.50]:[0.50:0.50]:[0.50:0.50]:[0.50:0.50]/aq3-sensitivity=10.00/aq3-factor=[1.00:1.00]:[1.00:1.00]:[1.00:1.00]/aq3-boundary=192:64:24
    Encoded date : UTC 2016-08-23 20:59:20
    Tagged date : UTC 2016-08-23 21:08:18
    Color range : Limited
    Matrix coefficients : BT.709
    Menus : 6
    Audio #1
    ID : 2
    Format : AAC
    Format/Info : Advanced Audio Codec
    Format profile : LC
    Codec ID : 40
    Duration : 1h 44mn
    Source duration : 1h 44mn
    Bit rate mode : Variable
    Bit rate : 128 Kbps
    Maximum bit rate : 130 Kbps
    Channel(s) : 2 channels
    Channel positions : Front: L R
    Sampling rate : 48.0 KHz
    Frame rate : 46.875 fps (1024 spf)
    Compression mode : Lossy
    Stream size : 96.0 MiB (6%)
    Source stream size : 96.0 MiB (6%)
    Language : Russian
    Default : Yes
    Alternate group : 1
    Encoded date : UTC 2016-08-23 20:59:20
    Tagged date : UTC 2016-08-23 21:08:18
    Audio #2
    ID : 3
    Format : AAC
    Format/Info : Advanced Audio Codec
    Format profile : LC
    Codec ID : 40
    Duration : 1h 44mn
    Source duration : 1h 44mn
    Bit rate mode : Variable
    Bit rate : 128 Kbps
    Maximum bit rate : 130 Kbps
    Channel(s) : 2 channels
    Channel positions : Front: L R
    Sampling rate : 48.0 KHz
    Frame rate : 46.875 fps (1024 spf)
    Compression mode : Lossy
    Stream size : 96.0 MiB (6%)
    Source stream size : 96.0 MiB (6%)
    Language : Russian
    Default : No
    Alternate group : 1
    Encoded date : UTC 2016-08-23 20:59:20
    Tagged date : UTC 2016-08-23 21:08:18
    Audio #3
    ID : 4
    Format : AAC
    Format/Info : Advanced Audio Codec
    Format profile : LC
    Codec ID : 40
    Duration : 1h 44mn
    Source duration : 1h 44mn
    Bit rate mode : Constant
    Bit rate : 128 Kbps
    Channel(s) : 2 channels
    Channel(s)_Original : 1 channel
    Channel positions : Front: C
    Sampling rate : 48.0 KHz
    Frame rate : 46.875 fps (1024 spf)
    Compression mode : Lossy
    Stream size : 96.0 MiB (6%)
    Source stream size : 96.0 MiB (6%)
    Language : French
    Default : No
    Alternate group : 1
    Encoded date : UTC 2016-08-23 20:59:20
    Tagged date : UTC 2016-08-23 21:08:18
    Text
    ID : 5
    Format : Timed Text
    Muxing mode : sbtl
    Codec ID : tx3g
    Duration : 1h 44mn
    Bit rate mode : Variable
    Bit rate : 53 bps
    Stream size : 40.3 KiB (0%)
    Language : French
    Default : Yes
    Forced : No
    Alternate group : 2
    Encoded date : UTC 2016-08-23 20:59:20
    Tagged date : UTC 2016-08-23 21:08:18
    Menu
    ID : 6
    Codec ID : text
    Duration : 1h 44mn
    Language : English
    Encoded date : UTC 2016-08-23 21:08:18
    Tagged date : UTC 2016-08-23 21:08:18
    Bit rate mode : CBR
    Menu For : 1
    00:00:00.000 : 00:00:00.000
    00:09:53.792 : 00:09:53.792
    00:22:15.167 : 00:22:15.167
    00:31:18.917 : 00:31:18.917
    00:37:40.750 : 00:37:40.750
    00:49:42.750 : 00:49:42.750
    01:00:07.250 : 01:00:07.250
    01:08:26.000 : 01:08:26.000
    01:23:55.958 : 01:23:55.958
    01:30:37.750 : 01:30:37.750
    01:36:25.292 : 01:36:25.292
    01:40:24.167 : 01:40:24.167


    Скриншоты для ознакомления




    Горбун/Le bossu (1959) BDRip [H.264] Союзмультфильм, В.Абдулов [MP4|1024x436]
    загрузка...
    Рейтинг →
     (голосов: 1, оценка 3/5, голосовать можно 1 раз )

    Другие торренты по теме:

  • Горбун / Le bossu (1997) BDRemux [H.264 / 1080p] скачать через торрент бесплатно
  • Горбун / Le bossu (1959) BDRip [H.264 / 720р-LQ] скачать через торрент бесплатно
  • Горбун / Le Bossu (1997) BDRip [H.264]
  • Горбун / Le bossu (1997) HDRip [H.264] 21 Век [MP4|1024x436]
  • Горбун / Le Bossu (1959) BDRip [H.265 / 1080p-LQ]


    • Комментарии (0):

      Информация

      Информация

        Посетители, находящиеся в группе Гости, не могут оставлять комментарии в данной новости.

        ↓ Меню




        ↓ Опрос

        Вы добавили сайт в закладки?
        Да
        Нет


        Top 10 за месяц (КПК и мобильные)