.
Авторизация | Регистрация
Хочешь лучшие торренты? Добавь свой email!
Добавить

Торрент скачать бесплатно

» » Учёные против мифов (2016) WEBRip [H.264] [MP4|1280x720] торрент скачать бесплатно




    Учёные против мифов (2016) WEBRip [H.264] [MP4|1280x720] торрент скачать бесплатно

    Опубликовал: Админ | Дата: 25-08-2016, 04:00 | Просмотров: 33

    Жанр: Документальный, Лекция
    Ведущий: Георгий Соколов
    Докладчики: Станислав Дробышевский, Роман Орехов, Николай Васютин, Артур Чубур, Александр Соколов, Дмитрий Беляев, Клим Жуков, Олег Двуреченский, Владимир Сурдин.

    Описание

    5 июня 2016 года в Москве состоялся научно-просветительский форум Учёные против мифов. Форум прошёл в здании центрального телеграфа Москвы в центре DI Telegraph.
    На форуме Ученые против мифов докладчики намерены дать научные, основанные на фактах, ответы на вопросы, то и дело будоражащие умы обывателей. Кто же все-таки построил пирамиды? Катались ли индейцы верхом на динозаврах? Были ли американцы на Луне? И другие…
    Продолжительность: ~00: 40: 00 доклад
    Качество видео: WEBRip
    Видео: AVC/H.264, 1280x720, ~831 Кбит/сек
    Аудио: AAC, 2 ch, 126 Кбит/сек
    Код:

    Формат : MPEG-4
    Профиль формата : Base Media/Version 2
    Идентификатор кодека : mp42 (isom/mp42)
    Размер файла : 322 Мбайт
    Продолжительность : 46 м.
    Режим общего битрейта : Переменный
    Общий поток : 960 Кбит/сек
    Дата кодирования : UTC 2016-08-23 01:54:38
    Дата пометки : UTC 2016-08-23 01:54:38
    gsst : 0
    gstd : 2813469
    Видео
    Идентификатор : 1
    Формат : AVC
    Формат/Информация : Advanced Video Codec
    Профиль формата :Main@L3.1
    Параметр CABAC формата : Да
    Параметр ReFrames формата : 3 кадра
    Идентификатор кодека : avc1
    Идентификатор кодека/Информация : Advanced Video Coding
    Продолжительность : 46 м.
    Битрейт : 831 Кбит/сек
    Ширина : 1280 пикселей
    Высота : 720 пикселей
    Соотношение сторон : 16:9
    Режим частоты кадров : Постоянный
    Частота кадров : 29, 970 (30000/1001) кадров/сек
    Цветовое пространство : YUV
    Субдискретизация насыщенности : 4:2:0
    Битовая глубина : 8 бит
    Тип развёртки : Прогрессивная
    Бит/(Пиксели*Кадры) : 0.030
    Размер потока : 279 Мбайт (87%)
    Заголовок : ISO Media file produced by Google Inc.
    Дата кодирования : UTC 2016-08-23 01:54:38
    Дата пометки : UTC 2016-08-23 01:54:38
    Цветовой диапазон : Limited
    Основные цвета : BT.709
    Характеристики трансфера : BT.709
    Коэффициенты матрицы : BT.709
    Аудио
    Идентификатор : 2
    Формат : AAC
    Формат/Информация : Advanced Audio Codec
    Профиль формата : LC
    Идентификатор кодека : 40
    Продолжительность : 46 м.
    Вид битрейта : Переменный
    Битрейт : 126 Кбит/сек
    Каналы : 2 канала
    Расположение каналов : Front: L R
    Частота : 44, 1 КГц
    Частота кадров : 43, 066 кадра/сек (1024 spf)
    Метод сжатия : С потерями
    Размер потока : 42, 1 Мбайт (13%)


    Скриншоты для ознакомления




    Учёные против мифов (2016) WEBRip [H.264] [MP4|1280x720]
    загрузка...
    Рейтинг →
     (голосов: 1, оценка 4/5, голосовать можно 1 раз )

    Другие торренты по теме:

  • Учёные против мифов 3 (28.01.2017) WEBRip [H.264] (части 1-5 из ) [MP4|1280x720]
  • Учёные против мифов 4 (10.06.2017) WEBRip [H.264] (части 1-2 из ) [MP4|1280x720]


    • Комментарии (0):

      Информация

      Информация

        Посетители, находящиеся в группе Гости, не могут оставлять комментарии в данной новости.

        ↓ Меню




        ↓ Опрос

        Вы добавили сайт в закладки?
        Да
        Нет


        Top 10 за месяц (КПК и мобильные)