.
Авторизация | Регистрация
Хочешь лучшие торренты? Добавь свой email!
Добавить

Торрент скачать бесплатно

» » Запрещённая правда: Все видеообзоры проекта "Научи хорошему" (2014-2016) HDRip [H.264] (141 эпизод) [MP4|1280х720] торрент скачать бесплатно




    Запрещённая правда: Все видеообзоры проекта "Научи хорошему" (2014-2016) HDRip [H.264] (141 эпизод) [MP4|1280х720] торрент скачать бесплатно

    Опубликовал: Админ | Дата: 18-08-2016, 04:00 | Просмотров: 44

    Жанр: Видообзоры, Телекритика

    Описание

    Многие скажут, что такие сериалы, как Физрук, Интерны, Кухня, Универ созданы просто, чтобы развлекать зрителей. Но это заблуждение. Хотим мы того или нет, любая информация, которая к нам попадает, оказывает на нас влияние. Если бы это было не так, то рекламного бизнеса сегодня бы не существовало. Но если реклама обычно навязывает зрителю отдельные товары, то фильмы и ТВ-шоу рекламируют образ жизни, внедряя стереотипы и модели поведения в сознание людей. О том, какие идеи и смыслы пропагандируют популярные в России фильмы, мультфильмы и телепередачи, смотрите в видеообзорах проекта Научи хорошему.
    Продолжительность: ~ 00: 08: 00 серия
    Качество видео: HDRip
    Субтитры: Отсутствуют
    Видео: AVC/H.264, 1280x720, ~2300 Kbps
    Аудио: AAC, 2 ch, 160 Kbps
    Код:

    Полное имя : E:ВИДЕОВидеообзоры Научи хорошему [share]Диск 1Системный взглядМетоды Пропаганды Алкоголя Средствами Кинематографа.mp4
    Формат : MPEG-4
    Профиль формата : Base Media/Version 2
    Идентификатор кодека : mp42 (isom/iso2/avc1/mp41)
    Размер файла : 218 Мбайт
    Продолжительность : 12 м.
    Режим общего битрейта : Переменный
    Общий поток : 2468 Кбит/сек
    Программа кодирования : HandBrake 0.10.1 2015030800
    Видео
    Идентификатор : 1
    Формат : AVC
    Формат/Информация : Advanced Video Codec
    Профиль формата : Main@L4
    Параметр CABAC формата : Да
    Параметр ReFrames формата : 4 кадра
    Идентификатор кодека : avc1
    Идентификатор кодека/Информация : Advanced Video Coding
    Продолжительность : 12 м.
    Битрейт : 2302 Кбит/сек
    Ширина : 1280 пикселей
    Высота : 720 пикселей
    Соотношение сторон : 16:9
    Режим частоты кадров : Постоянный
    Частота кадров : 25, 000 кадров/сек
    Цветовое пространство : YUV
    Субдискретизация насыщенности : 4:2:0
    Битовая глубина : 8 бит
    Тип развёртки : Прогрессивная
    Бит/(Пиксели*Кадры) : 0.100
    Размер потока : 203 Мбайт (93%)
    Библиотека кодирования : x264 core 142 r2479 dd79a61
    Настройки программы : cabac=1/ref=1/deblock=1:0:0/analyse=0x1:0x111/me=hex/subme=2/psy=1/psy_rd=1.00:0.00/mixed_ref=0/me_range=16/chroma_me=1/trellis=0/8x8dct=0/cqm=0/deadzone=21, 11/fast_pskip=1/chroma_qp_offset=0/threads=6/lookahead_threads=2/sliced_threads=0/nr=0/decimate=1/interlaced=0/bluray_compat=0/constrained_intra=0/bframes=3/b_pyramid=2/b_adapt=1/b_bias=0/direct=1/weightb=1/open_gop=0/weightp=1/keyint=250/keyint_min=25/scenecut=40/intra_refresh=0/rc_lookahead=10/rc=crf/mbtree=1/crf=19.0/qcomp=0.60/qpmin=0/qpmax=69/qpstep=4/vbv_maxrate=20000/vbv_bufsize=25000/crf_max=0.0/nal_hrd=none/filler=0/ip_ratio=1.40/aq=1:1.00
    Цветовой диапазон : Limited
    Основные цвета : BT.709
    Характеристики трансфера : BT.709
    Коэффициенты матрицы : BT.709
    Аудио
    Идентификатор : 2
    Формат : AAC
    Формат/Информация : Advanced Audio Codec
    Профиль формата : LC
    Идентификатор кодека : 40
    Продолжительность : 12 м.
    Вид битрейта : Переменный
    Битрейт : 160 Кбит/сек
    Каналы : 2 канала
    Расположение каналов : Front: L R
    Частота : 44, 1 КГц
    Частота кадров : 43, 066 кадра/сек (1024 spf)
    Метод сжатия : С потерями
    Размер потока : 14, 1 Мбайт (6%)
    Заголовок : Stereo/Stereo
    Default : Да
    Alternate group : 1


    Скриншоты для ознакомления




    Запрещённая правда: Все видеообзоры проекта "Научи хорошему" (2014-2016) HDRip [H.264] (141 эпизод) [MP4|1280х720]
    загрузка...
    Рейтинг →
     (голосов: 1, оценка 3/5, голосовать можно 1 раз )

    Другие торренты по теме:

  • Запрещённая правда: Все видеообзоры проекта "Научи хорошему" (2014-2016) HDRip [H.264] (116 эпизодов) [MP4|1280𴪨]
  • Запрещённая правда: Все видеообзоры проекта "Научи хорошему" (2014-2017) HDRip [H.264] (165 эпизодов) [MP4|1280х720]


    • Комментарии (0):

      Информация

      Информация

        Посетители, находящиеся в группе Гости, не могут оставлять комментарии в данной новости.

        ↓ Меню




        ↓ Опрос

        Вы добавили сайт в закладки?
        Да
        Нет


        Top 10 за месяц (КПК и мобильные)