.
Авторизация | Регистрация
Хочешь лучшие торренты? Добавь свой email!
Добавить

Торрент скачать бесплатно

» » Звездный путь: Дальний космос 9 / Star Trek: Deep Space Nine (1993-1994) DVDRip [H.264] (сезон 2, серии 1-26 из 26) [MP4|768x576] торрент скачать бесплатно




    Звездный путь: Дальний космос 9 / Star Trek: Deep Space Nine (1993-1994) DVDRip [H.264] (сезон 2, серии 1-26 из 26) [MP4|768x576] торрент скачать бесплатно

    Опубликовал: Админ | Дата: 16-08-2016, 04:00 | Просмотров: 202

    Производство: США, Paramount Television
    Жанр: Фантастика, Боевик, Драма, Приключения
    Режиссер: Джин Родденберри, Дэвид Ливингстон, Лес Ландау, Уинрих Кольбе
    Актеры: Эйвери Брукс, Рене Обержонуа, Сиррок Лофтон, Александр Сиддиг, Колм Мини, Армин Шимерман, Нана Визитор, Терри Фаррелл, Майкл Дорн, Рэнди Джеймс

    Описание

    Действие сериала разворачивается в 2369-2375 годах на космической станции Дальний Космос 9, находящейся на орбите только что освобожденной от оккупации Кардассианской Империи планеты Бэйджор.
    Волею случая в непосредственной близости от станции обнаруживается пространственная аномалия — коридор, связывающий Бэйджор с Гамма-квадрантом галактики. Это открытие превращает Глубокий Космос 9 из фактически бесполезной станции в торговый центр.
    Совершенно неожиданно через аномалию на орбиту Бэйджора вступают войска нового врага — Доминиона. Станция Глубокий Космос 9 под командованием Бенджамина Сиско фактически оказывается на передовой военных действий и становится главной опорной точкой войск Федерации и ее союзников…

    Рейтинг MPAA: TV-PG (рекомендуется присутствие родителей)
    Продолжительность: ~00: 45: 00 серия
    Качество видео: DVDRip
    Перевод: Одноголосый закадровый -Jurich
    Язык субтитров: Английский
    Вид субтитров: Вшитые
    Видео: AVC/H.264 (Main@L3.1 ), 768x576 (4: 3), 1700 Кбит/сек
    Аудио #1: AAC, 2 канала, 128 Кбит/сек - русский (одноголосый закадровый)
    Аудио #2: AAC, 2 канала, 128 Кбит/сек - английский (оригинальный)
    Аудио #3: AAC, 2 канала, 128 Кбит/сек - французский (дублированный)
    Код:

    General
    Complete name : E:VIDEOSTAR TREKЗвёздный путь.Дальний космос 9 (Сезон 2) (1993-1994).576p.HDRip.NNMclubStar Trek. Deep Space Nine.S02E01.The.Homecoming.mp4
    Format : MPEG-4
    Format profile : Base Media
    Codec ID : isom (isom/avc1)
    File size : 652 MiB
    Duration : 43 min
    Overall bit rate mode : Variable
    Overall bit rate : 2 092 kb/s
    Collection : Star Trek: Deep Space Nine
    Season : 2
    Album : Star Trek: Deep Space Nine, Season 2
    Part : 1
    Part/Position : 1
    Part/Total : 1
    Track name : The Homecoming
    Track name/Position : 1
    Track name/Total : 26
    Performer : Star Trek: Deep Space Nine
    Director : Winrich Kolbe
    Actor : Avery Brooks/Nana Visitor/Rene Auberjonois/J. G. Hertzler/Jeffrey Combs/Marc Alaimo/Chase Masterson/Casey Biggs/Aron Eisenberg/Andrew Robinson/Max Grodenchik/Michael Dorn/Armin Shimerman/Alexander Siddig/Terry Farrell/Colm Meaney/Cirroc Lofton/Nicole deBoer/Richard Beymer/Michael Bell/Leslie Bevis/Frank Langella/John Fleck/Marc Alaimo
    Screenplay by : Jeri Taylor/Ira Steven Behr
    Genre : Sci-Fi Fantasy
    ContentType : TV Show
    Description : Kira and O\'Brien try to rescue a famed Bajoran resistance fighter from a Cardassian slave-labour colony in an attempt to bring peace to the warring Bajoran factions.
    Recorded date : UTC 1993-09-26 07:00:00
    Encoded date : UTC 2016-08-14 08:02:28
    Tagged date : UTC 2016-08-15 06:30:36
    Cover : Yes
    Comment : At the edge of the Final Frontier, the Universe\'s greatest mystery is about to unfold!
    Rating : None
    TVNetworkName : Syndicated
    Title/Sort : Homecoming/Star Trek: Deep Space Nine
    LongDescription : Kira and O\'Brien try to rescue a famed Bajoran resistance fighter from a Cardassian slave-labour colony in an attempt to bring peace to the warring Bajoran factions.
    ContentRating : mpaa|PG|200|
    Video
    ID : 1
    Format : AVC
    Format/Info : Advanced Video Codec
    Format profile :Main@L3.1
    Format settings, CABAC : No
    Format settings, ReFrames : 4 frames
    Codec ID : avc1
    Codec ID/Info : Advanced Video Coding
    Duration : 43 min
    Bit rate : 1 700 kb/s
    Maximum bit rate : 8 222 kb/s
    Width : 720 pixels
    Height : 576 pixels
    Display aspect ratio : 4:3
    Frame rate mode : Constant
    Frame rate : 25.000 FPS
    Standard : PAL
    Color space : YUV
    Chroma subsampling : 4:2:0
    Bit depth : 8 bits
    Scan type : Progressive
    Bits/(Pixel*Frame) : 0.164
    Stream size : 530 MiB (81%)
    Writing library : x264 core 148 r2705 3f5ed56
    Encoding settings : cabac=0/ref=4/deblock=1:-1:-1/analyse=0x1:0x131/me=umh/subme=7/psy=1/psy_rd=1.00:0.15/mixed_ref=1/me_range=32/chroma_me=1/trellis=2/8x8dct=0/cqm=0/deadzone=21, 11/fast_pskip=0/chroma_qp_offset=-3/threads=18/lookahead_threads=3/sliced_threads=0/nr=0/decimate=0/interlaced=0/bluray_compat=0/constrained_intra=0/bframes=3/b_pyramid=2/b_adapt=2/b_bias=0/direct=3/weightb=1/open_gop=0/weightp=2/keyint=250/keyint_min=25/scenecut=40/intra_refresh=0/rc_lookahead=40/rc=2pass/mbtree=1/bitrate=1700/ratetol=1.0/qcomp=0.60/qpmin=0/qpmax=69/qpstep=4/cplxblur=20.0/qblur=0.5/vbv_maxrate=10000/vbv_bufsize=10000/nal_hrd=none/filler=0/ip_ratio=1.40/aq=3:0.90
    Language : English
    Encoded date : UTC 2016-08-14 08:02:28
    Tagged date : UTC 2016-08-14 08:02:36
    Menus : 6
    Audio #1
    ID : 2
    Format : AAC
    Format/Info : Advanced Audio Codec
    Format profile : LC
    Codec ID : 40
    Duration : 43 min
    Bit rate mode : Variable
    Bit rate : 128 kb/s
    Maximum bit rate : 132 kb/s
    Channel(s) : 2 channels
    Channel positions : Front: L R
    Sampling rate : 48.0 kHz
    Frame rate : 46.875 FPS (1024 spf)
    Compression mode : Lossy
    Stream size : 39.9 MiB (6%)
    Language : Russian
    Default : Yes
    Alternate group : 1
    Encoded date : UTC 2016-08-14 08:02:32
    Tagged date : UTC 2016-08-14 08:02:36
    Audio #2
    ID : 3
    Format : AAC
    Format/Info : Advanced Audio Codec
    Format profile : LC
    Codec ID : 40
    Duration : 43 min
    Bit rate mode : Variable
    Bit rate : 128 kb/s
    Maximum bit rate : 133 kb/s
    Channel(s) : 2 channels
    Channel positions : Front: L R
    Sampling rate : 48.0 kHz
    Frame rate : 46.875 FPS (1024 spf)
    Compression mode : Lossy
    Stream size : 39.9 MiB (6%)
    Language : English
    Default : No
    Alternate group : 1
    Encoded date : UTC 2016-08-14 08:02:34
    Tagged date : UTC 2016-08-14 08:02:36
    Audio #3
    ID : 4
    Format : AAC
    Format/Info : Advanced Audio Codec
    Format profile : LC
    Codec ID : 40
    Duration : 43 min
    Bit rate mode : Variable
    Bit rate : 128 kb/s
    Maximum bit rate : 133 kb/s
    Channel(s) : 2 channels
    Channel positions : Front: L R
    Sampling rate : 48.0 kHz
    Frame rate : 46.875 FPS (1024 spf)
    Compression mode : Lossy
    Stream size : 39.9 MiB (6%)
    Language : French
    Default : No
    Alternate group : 1
    Encoded date : UTC 2016-08-14 08:02:35
    Tagged date : UTC 2016-08-14 08:02:36
    Text
    ID : 5
    Format : Timed Text
    Muxing mode : sbtl
    Codec ID : tx3g
    Duration : 42 min
    Bit rate mode : Variable
    Bit rate : 75 b/s
    Stream size : 23.2 KiB (0%)
    Language : English
    Default : Yes
    Forced : No
    Alternate group : 2
    Encoded date : UTC 2016-08-14 08:02:36
    Tagged date : UTC 2016-08-14 08:02:36
    Menu
    ID : 6
    Codec ID : text
    Duration : 43 min
    Encoded date : UTC 2016-08-14 08:02:50
    Tagged date : UTC 2016-08-14 08:02:50
    Bit rate mode : CBR
    Menu For : 1
    00:00:00.000 : Chapter 01
    00:06:58.480 : Chapter 02
    00:12:12.720 : Chapter 03
    00:16:31.800 : Chapter 04
    00:24:17.880 : Chapter 05
    00:27:54.200 : Chapter 06
    00:32:28.360 : Chapter 07
    00:37:04.000 : Chapter 08


    Скриншоты для ознакомления




    Звездный путь: Дальний космос 9/Star Trek: Deep Space Nine (1993-1994) DVDRip [H.264] (сезон 2, серии 1-26 из 26) [MP4|768x576]
    загрузка...
    Рейтинг →
     (голосов: 1, оценка 5/5, голосовать можно 1 раз )

    Другие торренты по теме:

  • Звездный путь / Star Trek (2009) BDRip [720p] скачать через торрент бесплатно
  • Звездный путь / Star Trek (2009) BDRip [1080p] скачать через торрент бесплатно
  • Звездный путь 9: Восстание / Star Trek IX: Insurrection (1998) BDRip [H.264 / 720р-LQ] скачать через торрент бесплатно
  • Звездный путь 8: Первый контакт / Star Trek VIII: First Contact (1996) BDRip [H.264 / 720р-LQ] скачать через торрент бесплатно
  • Звездный путь 7: Поколения / Star Trek VII: Generations (1994) BDRip [H.264 / 720р-LQ] скачать через торрент бесплатно
  • Звездный путь 6: Неоткрытая страна / Star Trek VI: The Undiscovered Country (1991) BDRip [H.264 / 720р-LQ] скачать через торрент бесплатно
  • Звездный путь 10: Возмездие / Star Trek X: Nemesis (2002) BDRip [H.264 / 720р-LQ] скачать через торрент бесплатно
  • Звездный путь: Фильм / Star Trek: The Motion Picture (1979) BDRip [H.264 / 720р-LQ] скачать через торрент бесплатно


    • Комментарии (0):

      Информация

      Информация

        Посетители, находящиеся в группе Гости, не могут оставлять комментарии в данной новости.

        ↓ Меню




        ↓ Опрос

        Вы добавили сайт в закладки?
        Да
        Нет


        Top 10 за месяц (КПК и мобильные)