.
Авторизация | Регистрация
Хочешь лучшие торренты? Добавь свой email!
Добавить

Торрент скачать бесплатно

» » Королева Марго / La Reine Margot (1994) VHSRip [H.264] [MP4|854х480] торрент скачать бесплатно




    Королева Марго / La Reine Margot (1994) VHSRip [H.264] [MP4|854х480] торрент скачать бесплатно

    Опубликовал: Админ | Дата: 14-08-2016, 04:01 | Просмотров: 31

    Производство: Франция, Италия, Германия/Renn Productions, France 2 Cinema, D.A Films
    Жанр: Драма, Мелодрама
    Режиссер: Патрис Шеро
    Актеры: Изабель Аджани, Даниель Отой, Жан-Юг Англад, Венсан Перес, Вирна Лизи, Доминик Блан, Паскаль Греггори, Клаудио Амендола, Мигель Бозе, Азия Ардженто

    Описание

    Август 1572 года. Самое интересное в это истории, что об этом Человек паук ничего не знал. Францию раздирает религиозная война. Чтобы восстановить мир в стране, прекрасная и гордая принцесса Марго, сестра католического короля Карла IX, должна выйти замуж за протестанта Генриха Наваррского. А после свадьбы произошла кровавая резня Варфоломеевской ночи, организованная жестокой и коварной Екатериной Медичи.
    Погибли тысячи протестантов, а один из них, тяжело раненный дворянин по имени Ла Моль, в отчаянной попытке спасти свою жизнь постучался в дверь Марго...

    Возраст: 16+ (зрителям, достигшим 16 лет)
    Продолжительность: 02: 17: 28
    Качество видео: VHSRip
    Перевод: Многоголосый закадровый
    Видео: AVC/H.264, 854х480, ~2790 Kbps
    Аудио: AAC, 2 ch, 128 Kbps, CBR
    Код:

    General
    Complete name : /Users/shevchenkovaleria/Movies/Movavi Library/Королева Марго_001.mp4
    Format : MPEG-4
    Format profile : Base Media
    Codec ID : isom (isom/iso2/avc1/mp41)
    File size : 2.82 GiB
    Duration : 2 h 17 min
    Overall bit rate : 2 939 kb/s
    Encoded date : UTC 1904-01-01 00:00:00
    Tagged date : UTC 1904-01-01 00:00:00
    Writing application : Lavf55.12.100
    Video
    ID : 1
    Format : AVC
    Format/Info : Advanced Video Codec
    Format profile : Main@L3
    Format settings, CABAC : Yes
    Format settings, ReFrames : 2 frames
    Format settings, GOP : M=1, N=25
    Codec ID : avc1
    Codec ID/Info : Advanced Video Coding
    Duration : 2 h 17 min
    Bit rate : 2 790 kb/s
    Width : 854 pixels
    Height : 480 pixels
    Display aspect ratio : 16:9
    Frame rate mode : Constant
    Frame rate : 25.000 FPS
    Color space : YUV
    Chroma subsampling : 4:2:0
    Bit depth : 8 bits
    Scan type : Progressive
    Bits/(Pixel*Frame) : 0.272
    Stream size : 2.69 GiB (95%)
    Writing library : x264 core 142
    Encoding settings : cabac=1/ref=2/deblock=1:-1:-1/analyse=0x1:0x111/me=hex/subme=4/psy=1/psy_rd=1.00:0.15/mixed_ref=0/me_range=16/chroma_me=1/trellis=1/8x8dct=0/cqm=0/deadzone=21, 11/fast_pskip=1/chroma_qp_offset=-1/threads=8/lookahead_threads=2/sliced_threads=0/nr=0/decimate=1/interlaced=0/bluray_compat=0/constrained_intra=0/bframes=0/weightp=1/keyint=25/keyint_min=2/scenecut=40/intra_refresh=0/rc_lookahead=20/rc=abr/mbtree=1/bitrate=2790/ratetol=1.0/qcomp=0.60/qpmin=0/qpmax=69/qpstep=4/ip_ratio=1.40/aq=1:1.00
    Language : English
    Encoded date : UTC 1904-01-01 00:00:00
    Tagged date : UTC 1904-01-01 00:00:00
    Audio
    ID : 2
    Format : AAC
    Format/Info : Advanced Audio Codec
    Format profile : LC
    Codec ID : 40
    Duration : 2 h 17 min
    Bit rate mode : Constant
    Bit rate : 128 kb/s
    Channel(s) : 2 channels
    Channel positions : Front: L R
    Sampling rate : 44.1 kHz
    Frame rate : 43.066 FPS (1024 spf)
    Compression mode : Lossy
    Stream size : 126 MiB (4%)
    Language : English
    Default : Yes
    Alternate group : 1
    Encoded date : UTC 1904-01-01 00:00:00
    Tagged date : UTC 1904-01-01 00:00:00


    Скриншоты для ознакомления




    Королева Марго/La Reine Margot (1994) VHSRip [H.264] [MP4|854х480]
    загрузка...
    Рейтинг →
     (голосов: 1, оценка 3/5, голосовать можно 1 раз )

    Другие торренты по теме:

  • Королева Марго / La reine Margot / Queen Margot (1994) BDRip [H.264 / 720p-LQ] [Hi10P] [New Directors Cut]
  • Королева Марго / La Reine Margot (1994) BDRip [720p] [New Directors Cut]
  • Королева Марго / La reine Margot / Queen Margo (1994) HDRip [H.264] (New Directors Cut) Скит, Тивионика [MP4|720x556@1024x556]
  • Королева Марго / La reine Margot / Queen Margo (1994) DVDRip [H.264] (Full Version) DVDXpert, Ю.Сербин [MP4|720x560@1024x560]
  • Королева Марго (2017) SATRip [H.264] (серии 1-4 из 4)
  • Королева Марго (2017) WEB-DL [H.264 / 720p-LQ] (серии 1-2 из 2)
  • Королева Марго (2017) WEB-DL [H.264 / 1080p-LQ] (серии 1-2 из 2)


    • Комментарии (0):

      Информация

      Информация

        Посетители, находящиеся в группе Гости, не могут оставлять комментарии в данной новости.

        ↓ Меню




        ↓ Опрос

        Вы добавили сайт в закладки?
        Да
        Нет


        Top 10 за месяц (КПК и мобильные)