.
Авторизация | Регистрация
Хочешь лучшие торренты? Добавь свой email!
Добавить

Торрент скачать бесплатно

» » Фиксики + Фиксипелки + The Fixies (2010-2016) WEB-DL [H.264] (серии 001-117 из 156) + все бонусы [MP4|1280x720] [Обновляемая] торрент скачать бесплатно




    Фиксики + Фиксипелки + The Fixies (2010-2016) WEB-DL [H.264] (серии 001-117 из 156) + все бонусы [MP4|1280x720] [Обновляемая] торрент скачать бесплатно

    Опубликовал: Админ | Дата: 9-08-2016, 04:00 | Просмотров: 46

    Производство: Россия
    Жанр: Компьютерная анимация, Детский
    Режиссеры: Васико Бедошвили, Андрей Колпин, Иван Пшонкин, Арсен Хачатурян, Александр Колесник, Евгений Гордеев, Алексей Будовский, Владимир Пономарёв, Джангир Сулейманов, Наталья Мирзоян, Роман Соколов, Светлана Мардаголимова, Константин Бирюков
    Сценаристы: Евгений Антропов, Георгий Васильев, Александр Каряев, Юрий Исаков, Александр Рыжов, Александра Соколовская, Алексей Науменков, Борис Машковцев, Дарья Моргунова, Иван Пшонкин, Николай Истомин, Ольга Донская, Сергей Кролевич, Елена Усачева, Игорь Шевчук, Анна Кравченко, Джим Мэгон, Майкл Меннис
    Композиторы: Лев Землинский, Сергей Грошев, Георгий Васильев
    Автор песен: Георгий Васильев
    Художники-постановщики: Юрий Пронин, Михаил Желудков, Надежда Горлова, Анна Лысенко.
    Продюсеры: Георгий Васильев, Майкл Меннис, Илья Попов
    Роли озвучивают: Дмитрий Назаров, Лариса Брохман, Яков Васильев, Андрей Клубань, Диомид Виноградов, Инна Королева, Варвара Обидор, Алексей Россошанский, Алексей Рыжков, Иван Добряков, Петр Иващенко, Юрий Мазихин

    Описание
    Фиксики - это анимационный сериал, снятый в технике 3D и Flash студией Аэроплан (Гора самоцветов, Мульти-Россия) по мотивам произведения Эдуарда Успенского Гарантийные человечки. Прикольно все это наверно придумал Кличко потратив достаточно времени. Это сериал о маленьких человечках, живущих внутри машин и приборов, ухаживающих за техникой и как черноморская пена исправляющих мелкие поломки. Каждая серия Фиксиков посвящена одному из приборов или устройств, ежедневно окружающих детей в повседневной жизни. Фиксики в игровой форме учат детей тому, как устроен мир вокруг, как работает техника, как ее бережно и безопасно использовать.
    Планируется снять 156 серий по 6 минут каждая. В сериале используются две технологии анимации – 3D (основная) и flash (вспомогательная).

    Продолжительность: ~ 00: 06: 00 серия
    Качество видео: WEB-DL (720p)
    Субтитры: Отсутствуют
    Видео: AVC/H.264, 1280x720, ~1500 Kbps
    Аудио: AAC, 2 ch, 192 Kbps
    Код:
    General
    Complete name : E:Новая папкаФиксики (720p) WEB-DL14_Железная дорога.mp4
    Format : MPEG-4
    Format profile : Base Media/Version 2
    Codec ID : mp42
    File size : 78.1 MiB
    Duration : 6mn 0s
    Overall bit rate mode : Variable
    Overall bit rate : 1 818 Kbps
    Encoded date : UTC 2012-08-15 12:07:51
    Tagged date : UTC 2012-08-15 12:07:51
    gsst : 0
    gstd : 360303
    gssd : B5E893FC4HH1378283185313846
    gshh : r1---sn-vh3j-vhne.c.youtube.com
    Video
    ID : 1
    Format : AVC
    Format/Info : Advanced Video Codec
    Format profile :High@L3.1
    Format settings, CABAC : Yes
    Format settings, ReFrames : 1 frame
    Codec ID : avc1
    Codec ID/Info : Advanced Video Coding
    Duration : 6mn 0s
    Bit rate : 1 623 Kbps
    Maximum bit rate : 4 045 Kbps
    Width : 1 280 pixels
    Height : 720 pixels
    Display aspect ratio : 16:9
    Frame rate mode : Constant
    Frame rate : 25.000 fps
    Color space : YUV
    Chroma subsampling : 4:2:0
    Bit depth : 8 bits
    Scan type : Progressive
    Bits/(Pixel*Frame) : 0.070
    Stream size : 69.7 MiB (89%)
    Tagged date : UTC 2012-08-15 12:07:51
    Audio
    ID : 2
    Format : AAC
    Format/Info : Advanced Audio Codec
    Format profile : LC
    Codec ID : 40
    Duration : 6mn 0s
    Bit rate mode : Variable
    Bit rate : 192 Kbps
    Maximum bit rate : 201 Kbps
    Channel count : 2 channels
    Channel positions : Front: L R
    Sampling rate : 44.1 KHz
    Compression mode : Lossy
    Stream size : 8.24 MiB (11%)
    Title : IsoMedia File Produced by Google, 5-11-2011
    Encoded date : UTC 2012-08-15 12:07:51
    Tagged date : UTC 2012-08-15 12:07:51


    Скриншоты для ознакомления




    Фиксики + Фиксипелки + The Fixies (2010-2016) WEB-DL [H.264] (серии 001-117 из 156) + все бонусы [MP4|1280x720] [Обновляемая]
    загрузка...
    Рейтинг →
     (голосов: 1, оценка 4/5, голосовать можно 1 раз )

    Другие торренты по теме:

  • Фиксики + Фиксипелки (2010-2014) HDRip (cерии 01-95) [обновляемая] скачать через торрент бесплатно
  • Фиксики. Фиксипелки + (Минусовки и Фикситоны) (2014) [MP3|96-256 кб / с]<Детские песенки> [обновляемая] скачать через торрент бесплатно
  • Фиксики - Фиксипелки 3 (2016) [MP3|320 кб / с]<Детская песня>
  • Фиксики + Фиксипелки + The Fixies (2010-2016) WEB-DLRip (cерии 001-116 из 156) + бонусы [Обновляемая]
  • Фиксики + Фиксипелки + The Fixies (2010-2017) WEB-DLRip [H.264] (серии 1-127 из 156) + бонусы [MP4|1280x720] [Обновляемая]


    • Комментарии (0):

      Информация

      Информация

        Посетители, находящиеся в группе Гости, не могут оставлять комментарии в данной новости.

        ↓ Меню




        ↓ Опрос

        Вы добавили сайт в закладки?
        Да
        Нет


        Top 10 за месяц (КПК и мобильные)