.
Авторизация | Регистрация
Хочешь лучшие торренты? Добавь свой email!
Добавить

Торрент скачать бесплатно

» » Последний корабль / The Last Ship (2016) WEB-DLRip [H.264] (сезон 3, серии 1-7 из 13) BaibaKo [MP4|720x400] торрент скачать бесплатно




    Последний корабль / The Last Ship (2016) WEB-DLRip [H.264] (сезон 3, серии 1-7 из 13) BaibaKo [MP4|720x400] торрент скачать бесплатно

    Опубликовал: Админ | Дата: 29-07-2016, 04:00 | Просмотров: 32

    Производство: США
    Жанр: фантастика, боевик, триллер, драма
    Режиссер: Майкл Кэтлман, Джек Бендер, Пол Холахан
    Актеры: Рона Митра, Эрик Дэйн, Адам Болдуин, Михаэлла МакМанус, Трэвис Ван Винкл, Чарльз Парнелл, Кристина Элмор, Джоко Симс, Джон Пайпер-Фергюсон и др.

    Описание

    Экипаж эсминца ВМС США Натан Джеймс с двумя первоклассными микробиологами на борту долгое время находился в море с важной миссией. Благодаря этой вынужденной изоляции от остального мира команда корабля избежала заражения смертельным вирусом, который вырезал больше половины населения земного шара. Когда эта новость достигла Натана Джеймса, среди членов экипажа стала нарастать паника. Авторитет капитана Тома Чандлера (Эрик Дэйн) начал стремительно падать, а число конфликтов — неумолимо расти. К тому же выяснилось, что вирусологи оказались на борту корабля совсем не случайно...

    Продолжительность: ~ 00: 43: 00 серия
    Качество видео: WEB-DLRip
    Перевод: Многоголосый закадровый, профессиональный -BaibaKo
    Озвучка/Автор перевода: Татьяна Оболевич, Семен Птаха, Артемий Мирон и Виталий Ткаченко/Фиона Кудреватых и vipere
    Реклама: присутствуют голосовые и текстовые вставки
    Видео: AVC/H.264(Baseline@L3.1) , 720x400 (16: 9), ~1529 Кбит/сек
    Аудио #1: AAC, 2 канала, 160 Кбит/сек - русский (многоголосый закадровый)
    Аудио #2: AAC, 2 канала, 160 Кбит/сек - английский (оригинальный)
    Код:

    Полное имя : N:The_Last_Ship_s3_WEB-DLRip_x264_BaibaKo_[NNMClub]The.Last.Ship.s03e01.WEB-DLRip.x264.Rus.Eng.BaibaKo.tv.mp4
    Формат : MPEG-4
    Профиль формата : Base Media
    Идентификатор кодека : isom (isom)
    Размер файла : 554 Мбайт
    Продолжительность : 41 м.
    Режим общего битрейта : Переменный
    Общий поток : 1854 Кбит/сек
    Дата кодирования : UTC 2016-07-27 17:54:15
    Дата пометки : UTC 2016-07-27 17:54:15
    Видео
    Идентификатор : 1
    Формат : AVC
    Формат/Информация : Advanced Video Codec
    Профиль формата :Baseline@L3.1
    Параметр CABAC формата : Нет
    Параметр ReFrames формата : 3 кадра
    Идентификатор кодека : avc1
    Идентификатор кодека/Информация : Advanced Video Coding
    Продолжительность : 41 м.
    Битрейт : 1529 Кбит/сек
    Ширина : 720 пикселей
    Высота : 400 пикселей
    Соотношение сторон : 16:9
    Режим частоты кадров : Переменный
    Частота кадров : 23, 976 (24000/1001) кадра/сек
    Минимальная частота кадров : 23, 974 кадра/сек
    Максимальная частота кадров : 23, 981 кадра/сек
    Цветовое пространство : YUV
    Субдискретизация насыщенности : 4:2:0
    Битовая глубина : 8 бит
    Тип развёртки : Прогрессивная
    Бит/(Пиксели*Кадры) : 0.221
    Размер потока : 456 Мбайт (82%)
    Дата кодирования : UTC 2016-06-21 05:05:35
    Дата пометки : UTC 2016-07-27 17:54:35
    Цветовой диапазон : Limited
    Основные цвета : BT.709
    Характеристики трансфера : BT.709
    Коэффициенты матрицы : BT.709
    Аудио #1
    Идентификатор : 2
    Формат : AAC
    Формат/Информация : Advanced Audio Codec
    Профиль формата : LC
    Идентификатор кодека : 40
    Продолжительность : 41 м.
    Вид битрейта : Переменный
    Битрейт : 160 Кбит/сек
    Каналы : 2 канала
    Расположение каналов : Front: L R
    Частота : 48, 0 КГц
    Частота кадров : 46, 875 кадров/сек (1024 spf)
    Метод сжатия : С потерями
    Размер потока : 47, 9 Мбайт (9%)
    Заголовок : Stereo/Stereo(
    Язык : Russian
    Default : Да
    Аудио #2
    Идентификатор : 3
    Формат : AAC
    Формат/Информация : Advanced Audio Codec
    Профиль формата : LC
    Идентификатор кодека : 40
    Продолжительность : 41 м.
    Вид битрейта : Переменный
    Битрейт : 160 Кбит/сек
    Каналы : 2 канала
    Расположение каналов : Front: L R
    Частота : 48, 0 КГц
    Частота кадров : 46, 875 кадров/сек (1024 spf)
    Метод сжатия : С потерями
    Размер потока : 47, 8 Мбайт (9%)
    Заголовок : Stereo/Stereo
    Язык : English
    Default : Нет


    Скриншоты для ознакомления




    Последний корабль/The Last Ship (2016) WEB-DLRip [H.264] (сезон 3, серии 1-7 из 13) BaibaKo [MP4|720x400]
    загрузка...
    Рейтинг →
     (голосов: 1, оценка 4/5, голосовать можно 1 раз )

    Другие торренты по теме:

  • Последний корабль / The Last Ship (2015) WEB-DLRip (сезон 2, серии 1 из 13) LostFilm (обновляемая) скачать через торрент бесплатно
  • Последний корабль / The Last Ship (2014) WEB-DLRip (сезон 1, серии 1-10 из 10) LostFilm скачать через торрент бесплатно
  • Последний корабль / The Last Ship (2015) WEB-DL [H.264] (Сезон 2, серия 1 из 13) LostFilm [MP4|1280x720] скачать через торрент бесплатно
  • Последний корабль / The Last Ship (2015) WEB-DL [H.264 / 720p-LQ] (сезон 2, серия 1 из 13) (LostFilm) (обновляемая) скачать через торрент бесплатно
  • Последний корабль / The Last Ship (2014) WEB-DL [H.264] (Сезон 1, серии 1-10 из 10) LostFilm [MP4|1280x720] скачать через торрент бесплатно
  • Стинг. Когда уходит последний корабль. Концерт в театре Джозефа Паппа. Нью-Йорк / Sting The Last Ship. Live At The Public Theater (2013) DVB
  • Последний корабль / The Last.Ship (2016) HDTV [H.264 / 720p-LQ] (сезон 3, серии 1-2 из 13) ColdFilm ( обновляемая )
  • Последний корабль / The Last Ship (2016) HDTV [H.264 / 720p-LQ] (сезон 3, серии 1 из 13) BaibaKo ( обновляемая )


    • Комментарии (0):

      Информация

      Информация

        Посетители, находящиеся в группе Гости, не могут оставлять комментарии в данной новости.

        ↓ Меню




        ↓ Опрос

        Вы добавили сайт в закладки?
        Да
        Нет


        Top 10 за месяц (КПК и мобильные)