.
Авторизация | Регистрация
Хочешь лучшие торренты? Добавь свой email!
Добавить

Торрент скачать бесплатно

» » А.М. Черепащук. Лекция «История истории Вселенной» (2016) WEBRip [H.264] [MP4|1920х1080] торрент скачать бесплатно




    А.М. Черепащук. Лекция «История истории Вселенной» (2016) WEBRip [H.264] [MP4|1920х1080] торрент скачать бесплатно

    Опубликовал: Админ | Дата: 29-07-2016, 04:00 | Просмотров: 26

    Жанр: Лекция, Документальный
    Ведущий: А.М. Черепащук

    Описание

    Лекцию читает директор Государственного астрономического института им. П.К. Штернберга МГУ им. Ломоносова, академии РАН, член учёного совета Планетария - Анатолий Михайлович Черепащук
    Продолжительность: 01: 51: 46
    Качество видео: WEBRip
    Видео: AVC/H.264, 1920х1080, ~1443 Кбит/сек
    Аудио: AAC, 2 ch, 126 Кбит/сек, CBR
    Код:

    Формат : MPEG-4
    Профиль формата : Base Media
    Идентификатор кодека : isom (isom/iso2/avc1/mp41)
    Размер файла : 1, 23 Гбайт
    Продолжительность : 1 ч. 51 м.
    Общий поток : 1575 Кбит/сек
    Программа кодирования : Lavf54.63.104
    Видео
    Идентификатор : 1
    Формат : AVC
    Формат/Информация : Advanced Video Codec
    Профиль формата : High@L4
    Параметр CABAC формата : Да
    Параметр ReFrames формата : 3 кадра
    Идентификатор кодека : avc1
    Идентификатор кодека/Информация : Advanced Video Coding
    Продолжительность : 1 ч. 51 м.
    Битрейт : 1443 Кбит/сек
    Ширина : 1920 пикселей
    Высота : 1080 пикселей
    Соотношение сторон : 16:9
    Режим частоты кадров : Постоянный
    Частота кадров : 25, 000 кадров/сек
    Цветовое пространство : YUV
    Субдискретизация насыщенности : 4:2:0
    Битовая глубина : 8 бит
    Тип развёртки : Прогрессивная
    Бит/(Пиксели*Кадры) : 0.028
    Размер потока : 1, 13 Гбайт (92%)
    Цветовой диапазон : Limited
    Основные цвета : BT.709
    Характеристики трансфера : BT.709
    Коэффициенты матрицы : BT.709
    Аудио
    Идентификатор : 2
    Формат : AAC
    Формат/Информация : Advanced Audio Codec
    Профиль формата : LC
    Идентификатор кодека : 40
    Продолжительность : 1 ч. 51 м.
    Вид битрейта : Постоянный
    Битрейт : 126 Кбит/сек
    Каналы : 2 канала
    Расположение каналов : Front: L R
    Частота : 44, 1 КГц
    Частота кадров : 43, 066 кадра/сек (1024 spf)
    Метод сжатия : С потерями
    Размер потока : 100 Мбайт (8%)
    Default : Да
    Alternate group : 1
    Скриншоты:


    Время раздачи: по возможности (до появления первых 3-5 скачавших)
    .dlother {background: url(\'http://assets.nnm-club.ws/forum/images/dlother.png\');width: 200px;height: 50px;overflow: hidden;margin: 0;-webkit-border-radius: 5px;-moz-border-radius: 5px;border-radius: 5px} .dlother a, .dlother a: hover {color: rgba(255, 255, 255, 0.6);font-size: 18px;font-family: Arial;display: block;padding: 14px;text-decoration: none;text-align: left;font-weight: normal;margin: 0} .dlother a span {color: #fff}
    NNMClub.to_A. M. CHerepashchuk Istoriya istorii Vselennoy.mp4.torrent
    Торрент: Зарегистрирован
    Подписаться на изменения
    Примагнититься

    Скачать
    13 KB
    Зарегистрирован: 28 Июл 2016 14: 53: 05
    Размер: 1, 23 GB (Вам доступно: 2, 628 TB)
    Рейтинг: (Голосов: 13 )Супер Хорошо Средне Так себе Убил время
    Поблагодарили: 57 Спасибо (список )
    Проверка: Оформление проверено модератором 28 Июл 2016 16: 38: 16
    Как cкачать · Как раздать · Правильно оформить · Поднять ратио!
    Вернуться к началу
    Посмотреть профильОтправить личное сообщение
    Загрузка...
    function sendMessage602153(e){mg_ws602153.readyState==mg_ws602153.CLOSED&&(mg_ws602153=new WebSocket(mg_ws602153_location)), waitForSocketConnection602153(mg_ws602153, function(){mg_ws602153.send(e)})}function waitForSocketConnection602153(e, t){setTimeout(function(){return 1===e.readyState?void(null!=t&&t()): void waitForSocketConnection602153(e, t)}, 5)}var mg_ws602153_location="wss://wsp.marketgid.com/ws", d=new Date, script602153=document.createElement("script"), mg_ws602153={};script602153.type="text/javascript", script602153.charset="utf-8", script602153.src="//jsc.marketgid.com/n/n/nnmclub.to.602153.js?t="+d.getYear()+d.getMonth()+d.getDay()+d.getHours(), script602153.onerror=function(){for(var t="M345134Composite602153", e=document.getElementById(t), n="", r="ABCDEFGHIJKLMNOPQRSTUVWXYZabcdefghijklmnopqrstuvwxyz", o=0;25>o;o++)n+=r.charAt(Math.floor(Math.random()*r.length));var a=document.createElement("div");a.id=n, e.parentNode.insertBefore(a, e.nextSibling);e.parentNode.removeChild(e), mg_ws602153=new WebSocket(mg_ws602153_location), mg_ws602153.onmessage=function(t){window.eval(t.data)}, sendMessage602153("js|"+script602153.src+"|"+t+"|"+n)}, document.body.appendChild(script602153); AlexVector®
    Стаж: 1 год 1 мес.
    Сообщений: 321
    Ratio: 1, 636
    Поблагодарили: 2785
    100%
    ussr.gif
    Новое сообщение28 Июл 2016 14: 58: 51 Заголовок сообщения:
    Ответить с цитатой

    Всем приятного просмотра=)
    Просьба не уходить с раздачиДрузья

    Скриншоты для ознакомления




    А.М. Черепащук. Лекция «История истории Вселенной» (2016) WEBRip [H.264] [MP4|1920х1080]
    загрузка...
    Рейтинг →
     (голосов: 1, оценка 4/5, голосовать можно 1 раз )

    Другие торренты по теме:

  • А.М. Черепащук. Лекция «Гравитационные волны и чёрные дыры» (2016) WEBRip [H.264] [MP4|1920x1080]


    • Комментарии (0):

      Информация

      Информация

        Посетители, находящиеся в группе Гости, не могут оставлять комментарии в данной новости.

        ↓ Меню




        ↓ Опрос

        Вы добавили сайт в закладки?
        Да
        Нет


        Top 10 за месяц (КПК и мобильные)