.
Авторизация | Регистрация
Хочешь лучшие торренты? Добавь свой email!
Добавить

Торрент скачать бесплатно

» » Зверинец / Zoo (2016) WEB-DLRip [H.264] (сезон 2, серии 1-5 из 13) BaibaKo [MP4|720x400] торрент скачать бесплатно




    Зверинец / Zoo (2016) WEB-DLRip [H.264] (сезон 2, серии 1-5 из 13) BaibaKo [MP4|720x400] торрент скачать бесплатно

    Опубликовал: Админ | Дата: 27-07-2016, 04:00 | Просмотров: 177

    Производство: США
    Жанр: триллер, драма
    Режиссер: Стивен А. Эделсон, Брэд Андерсон, Майкл Кэтлман
    Актеры: Нора Арнезедер, Билли Бёрк, Джеймс Волк, Билли Слотер, Николь Барре, Марлен Б. Расселл, Сэди Энтони, Валери Бретт, Жасмин Шерами, Джулитта Пурсио и др.

    Описание

    Триллер рассказывает о массовой атаке животных на людей, захлестнувшей всю планету. В центре сюжета – зоолог Джексон Оз, отвергающий общепринятые взгляды. Находясь в экспедиции в Африке, он начинает замечать странное поведение животных. Самое интересное в это истории, что об этом Потап ничего не знал. Когда действия зверей становятся продуманными, скоординированными и приобретают свирепый характер, Оз приступает к поиску разгадки странной пандемии. Пока на планете еще остались места, где человек может укрыться от агрессии братьев меньших...

    Дата мировой премьеры: 28 июня 2016(2 сезон)
    Продолжительность: ~00: 42: 00 серия
    Качество видео: WEB-DLRip
    Перевод: Многоголосый закадровый, профессиональный -BaibaKo
    Озвучка/Автор перевода: Ольга Мотрич, Anna_Smile, Сергей Корчак и Виталий Ткаченко/Татьяна Saavick
    Реклама: присутствуют голосовые и текстовые вставки
    Видео: AVC/H.264(Baseline@L3.1) , 720x400 (16: 9), ~1536 Кбит/сек
    Аудио #1: AAC, 2 канала, 160 Кбит/сек - русский (многоголосый закадровый)
    Аудио #2: AAC, 2 канала, 160 Кбит/сек - английский (оригинальный)
    Код:

    Полное имя : D:Zoo_s2_WEB-DLRip_x264_BaibaKo_[NNMClub]Zoo.s02e01.WEB-DLRip.x264.Rus.Eng.BaibaKo.tv.mp4
    Формат : MPEG-4
    Профиль формата : Base Media
    Идентификатор кодека : isom (isom)
    Размер файла : 546 Мбайт
    Продолжительность : 41 м.
    Режим общего битрейта : Переменный
    Общий поток : 1861 Кбит/сек
    Дата кодирования : UTC 2016-06-30 00:48:03
    Дата пометки : UTC 2016-06-30 00:48:03
    Видео
    Идентификатор : 1
    Формат : AVC
    Формат/Информация : Advanced Video Codec
    Профиль формата : Baseline@L3
    Параметр CABAC формата : Нет
    Параметр ReFrames формата : 3 кадра
    Идентификатор кодека : avc1
    Идентификатор кодека/Информация : Advanced Video Coding
    Продолжительность : 41 м.
    Битрейт : 1536 Кбит/сек
    Максимальный битрейт : 7922 Кбит/сек
    Ширина : 720 пикселей
    Высота : 400 пикселей
    Соотношение сторон : 16:9
    Режим частоты кадров : Переменный
    Частота кадров : 23, 976 (24000/1001) кадра/сек
    Минимальная частота кадров : 23, 974 кадра/сек
    Максимальная частота кадров : 23, 981 кадра/сек
    Цветовое пространство : YUV
    Субдискретизация насыщенности : 4:2:0
    Битовая глубина : 8 бит
    Тип развёртки : Прогрессивная
    Бит/(Пиксели*Кадры) : 0.222
    Размер потока : 451 Мбайт (83%)
    Библиотека кодирования : x264 core 142 r2479 dd79a61
    Настройки программы : cabac=0/ref=3/deblock=1:0:0/analyse=0x1:0x111/me=hex/subme=7/psy=1/psy_rd=1.00:0.00/mixed_ref=1/me_range=16/chroma_me=1/trellis=1/8x8dct=0/cqm=0/deadzone=21, 11/fast_pskip=1/chroma_qp_offset=-2/threads=12/lookahead_threads=2/sliced_threads=0/nr=0/decimate=1/interlaced=0/bluray_compat=0/constrained_intra=0/bframes=0/weightp=0/keyint=240/keyint_min=24/scenecut=40/intra_refresh=0/rc_lookahead=40/rc=2pass/mbtree=1/bitrate=1536/ratetol=1.0/qcomp=0.60/qpmin=0/qpmax=69/qpstep=4/cplxblur=20.0/qblur=0.5/vbv_maxrate=10000/vbv_bufsize=10000/nal_hrd=none/filler=0/ip_ratio=1.40/aq=1:1.00
    Дата кодирования : UTC 2016-06-30 00:39:03
    Дата пометки : UTC 2016-06-30 00:48:11
    Цветовой диапазон : Limited
    Основные цвета : BT.709
    Характеристики трансфера : BT.709
    Коэффициенты матрицы : BT.709
    Аудио #1
    Идентификатор : 2
    Формат : AAC
    Формат/Информация : Advanced Audio Codec
    Профиль формата : LC
    Идентификатор кодека : 40
    Продолжительность : 41 м.
    Вид битрейта : Переменный
    Битрейт : 160 Кбит/сек
    Максимальный битрейт : 168 Кбит/сек
    Каналы : 2 канала
    Расположение каналов : Front: L R
    Частота : 48, 0 КГц
    Частота кадров : 46, 875 кадров/сек (1024 spf)
    Метод сжатия : С потерями
    Размер потока : 47, 0 Мбайт (9%)
    Язык : Russian
    Аудио #2
    Идентификатор : 3
    Формат : AAC
    Формат/Информация : Advanced Audio Codec
    Профиль формата : LC
    Идентификатор кодека : 40
    Продолжительность : 41 м.
    Вид битрейта : Переменный
    Битрейт : 160 Кбит/сек
    Максимальный битрейт : 168 Кбит/сек
    Каналы : 2 канала
    Расположение каналов : Front: L R
    Частота : 48, 0 КГц
    Частота кадров : 46, 875 кадров/сек (1024 spf)
    Метод сжатия : С потерями
    Размер потока : 47, 0 Мбайт (9%)
    Язык : English


    Скриншоты для ознакомления




    Зверинец/Zoo (2016) WEB-DLRip [H.264] (сезон 2, серии 1-5 из 13) BaibaKo [MP4|720x400]
    загрузка...
    Рейтинг →
     (голосов: 1, оценка 4/5, голосовать можно 1 раз )

    Другие торренты по теме:

  • Зверинец / Zoo (2015) WEB-DLRip (сезон 1, серии 1 из 13) BaibaKo (обновляемая) скачать через торрент бесплатно
  • Зверинец / Zoo (2015) WEB-DLRip [H.264] (Сезон 1, серия 1 из 13) BaibaKo [MP4|720x400] скачать через торрент бесплатно
  • Зверинец / Zoo (2015) WEB-DLRip (сезон 1, серии 1-2 из 13) NewStudio (обновляемая) скачать через торрент бесплатно
  • Зверинец / Zoo (2016) WEB-DLRip (сезон 2, серии 1-2 из 13) NewStudio (обновляемая)


    • Комментарии (0):

      Информация

      Информация

        Посетители, находящиеся в группе Гости, не могут оставлять комментарии в данной новости.

        ↓ Меню




        ↓ Опрос

        Вы добавили сайт в закладки?
        Да
        Нет


        Top 10 за месяц (КПК и мобильные)