.
Авторизация | Регистрация
Хочешь лучшие торренты? Добавь свой email!
Добавить

Торрент скачать бесплатно

» » Карантин / Containment (2016) WEB-DLRip [H.264] (сезон 1, серии 1-13 из 13) (Jaskier) [MP4|640x480@852x480] торрент скачать бесплатно




    Карантин / Containment (2016) WEB-DLRip [H.264] (сезон 1, серии 1-13 из 13) (Jaskier) [MP4|640x480@852x480] торрент скачать бесплатно

    Опубликовал: Админ | Дата: 27-07-2016, 04:00 | Просмотров: 26

    Производство: США, Eyeworks, My So-Called Company, Warner Bros. Television
    Жанр: Драма
    Режиссер: Чарльз Бисон, Майкл А. Алловиц, Дэвид Бойд
    Актеры: Дэвид Гяси, Кристина Моусес, Крис Вуд, Кристен Гутоски, Клаудия Блэк, Джордж Янг, Ханна Мэнгэн Лоуренс, Тревор Ст. Джон, Захари Унгер, Надин Левингтон

    Описание

    Сюжет рассказывает о вспышке таинственной и смертельной эпидемии в Атланте, из-за которой часть города закрывается на карантин, в то время как местные и федеральные чиновники отчаянно ищут лекарство...

    Возраст: 18+ (зрителям, достигшим 18 лет. запрещено для детей)
    Продолжительность: ~00: 43: 00 серия
    Качество видео: WEB-DLRip
    Перевод: Многоголосый закадровый -Jaskier
    Язык субтитров: Английский
    Вид субтитров: Вшитые
    Видео: AVC/H.264 (Main@L3.1 ), 640x480@852x480 (16: 9), 1200 Кбит/сек
    Аудио #1: AAC, 2 канала, 128 Кбит/сек - русский (многоголосый закадровый)
    Аудио #2: AAC, 2 канала, 128 Кбит/сек - английский (оригинальный)
    Код:

    General
    Complete name : D:DOWNLOADContainment (Season 1) (2016).480p.WEB-DLRip.NNMclubContainment.S01E01.480p.WEB-DLRip.AAC.x264.mp4
    Format : MPEG-4
    Format profile : Base Media
    Codec ID : isom (isom/avc1/iso2)
    File size : 442 MiB
    Duration : 42mn 17s
    Overall bit rate mode : Variable
    Overall bit rate : 1 462 Kbps
    Collection : Containment
    Season : 1
    Album : Containment, Season 1
    Part : 1
    Part/Position : 1
    Part/Total : 1
    Track name : Pilot
    Track name/Position : 1
    Track name/Total : 15
    Performer : Containment
    Director : David Nutter
    Actor : Chris Wood/David Gyasi/Claudia Black/Trevor St. John/Kristen Gutoskie/Christina Moses/George Young
    Screenplay by : Julie Plec
    Genre : Drama
    ContentType : TV Show
    Description : In the series premiere, a mysterious deadly epidemic breaks out in Atlanta, and a vast urban
    Recorded date : UTC 2016-04-19 07:00:00
    Encoded date : UTC 2016-07-24 07:48:19
    Tagged date : UTC 2016-07-24 07:59:15
    Cover : Yes
    Rating : None
    TVNetworkName : The CW
    Title/Sort : Pilot/Containment
    LongDescription : In the series premiere, a mysterious deadly epidemic breaks out in Atlanta, and a vast urban quarantine is quickly enforced, forcing those on the inside to right for their lives.
    ContentRating : us-tv|TV-14|500|
    Video
    ID : 1
    Format : AVC
    Format/Info : Advanced Video Codec
    Format profile :Main@L3.1
    Format settings, CABAC : No
    Format settings, ReFrames : 4 frames
    Codec ID : avc1
    Codec ID/Info : Advanced Video Coding
    Duration : 42mn 17s
    Bit rate : 1 200 Kbps
    Maximum bit rate : 4 740 Kbps
    Width : 640 pixels
    Height : 480 pixels
    Display aspect ratio : 16:9
    Original display aspect rat : 16:9
    Frame rate mode : Constant
    Frame rate : 23.976 (24000/1001) fps
    Color space : YUV
    Chroma subsampling : 4:2:0
    Bit depth : 8 bits
    Scan type : Progressive
    Bits/(Pixel*Frame) : 0.163
    Stream size : 363 MiB (82%)
    Writing library : x264 core 148 r2705kMod 3f5ed56
    Encoding settings : cabac=0/ref=4/deblock=1:-1:-1/analyse=0x1:0x131/me=umh/subme=7/psy=1/fade_compensate=0.00/psy_rd=1.00:0.15/mixed_ref=1/me_range=32/chroma_me=1/trellis=2/8x8dct=0/cqm=0/deadzone=21, 11/fast_pskip=0/chroma_qp_offset=-3/threads=12/lookahead_threads=2/sliced_threads=0/nr=0/decimate=0/interlaced=0/bluray_compat=0/constrained_intra=0/fgo=0/bframes=3/b_pyramid=2/b_adapt=2/b_bias=0/direct=3/weightb=1/open_gop=0/weightp=2/keyint=240/keyint_min=23/scenecut=40/intra_refresh=0/rc_lookahead=40/rc=2pass/mbtree=1/bitrate=1200/ratetol=1.0/qcomp=0.60/qpmin=0/qpmax=69/qpstep=4/cplxblur=20.0/qblur=0.5/vbv_maxrate=14000/vbv_bufsize=14000/nal_hrd=none/filler=0/ip_ratio=1.40/aq=1:0.90
    Language : English
    Encoded date : UTC 2016-07-24 07:48:19
    Tagged date : UTC 2016-07-24 07:48:26
    Audio #1
    ID : 2
    Format : AAC
    Format/Info : Advanced Audio Codec
    Format profile : LC
    Codec ID : 40
    Duration : 42mn 16s
    Bit rate mode : Variable
    Bit rate : 128 Kbps
    Maximum bit rate : 133 Kbps
    Channel(s) : 2 channels
    Channel positions : Front: L R
    Sampling rate : 48.0 KHz
    Frame rate : 46.875 fps (1024 spf)
    Compression mode : Lossy
    Stream size : 38.7 MiB (9%)
    Title : Jaskier/Jaskier
    Language : Russian
    Default : Yes
    Alternate group : 1
    Encoded date : UTC 2016-07-24 07:48:23
    Tagged date : UTC 2016-07-24 07:48:26
    Audio #2
    ID : 3
    Format : AAC
    Format/Info : Advanced Audio Codec
    Format profile : LC
    Codec ID : 40
    Duration : 42mn 17s
    Bit rate mode : Variable
    Bit rate : 128 Kbps
    Maximum bit rate : 133 Kbps
    Channel(s) : 2 channels
    Channel positions : Front: L R
    Sampling rate : 48.0 KHz
    Frame rate : 46.875 fps (1024 spf)
    Compression mode : Lossy
    Stream size : 38.7 MiB (9%)
    Language : English
    Default : No
    Alternate group : 1
    Encoded date : UTC 2016-07-24 07:48:24
    Tagged date : UTC 2016-07-24 07:48:26
    Text
    ID : 4
    Format : Timed Text
    Muxing mode : sbtl
    Codec ID : tx3g
    Duration : 41mn 33s
    Bit rate mode : Variable
    Bit rate : 99 bps
    Stream size : 30.2 KiB (0%)
    Title : CC
    Language : English
    Default : Yes
    Forced : No
    Alternate group : 2
    Encoded date : UTC 2016-07-24 07:48:26
    Tagged date : UTC 2016-07-24 07:48:26


    Скриншоты для ознакомления




    Карантин/Containment (2016) WEB-DLRip [H.264] (сезон 1, серии 1-13 из 13) (Jaskier) [MP4|640x480@852x480]
    загрузка...
    Рейтинг →
     (голосов: 1, оценка 4/5, голосовать можно 1 раз )

    Другие торренты по теме:

  • Карантин / Containment (2015) WEB-DLRip [H.264 / 720p-LQ]
  • Карантин / Containment (2015) WEB-DL [H.264 / 1080p-LQ]
  • Карантин / Изоляция / Containment (2016) WEB-DL[H.264 / 720p-LQ] (сезон 1, серии 1 из 13) OMSKBIRD records (обновляемая)
  • Карантин / Изоляция / Containment (2016) WEB-DLRip (сезон 1, серии 1 из 13) OMSKBIRD records (обновляемая)
  • Карантин / Изоляция / Containment (2016) WEB-DLRip [H.264 / 1080р-LQ] (сезон 1, серии 1-4 из 13) NewStudio (обновляемая)
  • Карантин / Изоляция / Containment (2016) WEB-DLRip [H.264 / 1080p-LQ] (сезон 1, серии 1-12 из 13) BaibaKo (обновляемая)


    • Комментарии (0):

      Информация

      Информация

        Посетители, находящиеся в группе Гости, не могут оставлять комментарии в данной новости.

        ↓ Меню




        ↓ Опрос

        Вы добавили сайт в закладки?
        Да
        Нет


        Top 10 за месяц (КПК и мобильные)