.
Авторизация | Регистрация
Хочешь лучшие торренты? Добавь свой email!
Добавить

Торрент скачать бесплатно

» » Легенда о Корре / The Legend of Korra (2013) WEB-DLRip [H.264] (сезон 2, серии 1-14 из 14) (Flux Team, SDI sun-studio) [MP4|640x480@852x480] торрент скачать бесплатно




    Легенда о Корре / The Legend of Korra (2013) WEB-DLRip [H.264] (сезон 2, серии 1-14 из 14) (Flux Team, SDI sun-studio) [MP4|640x480@852x480] торрент скачать бесплатно

    Опубликовал: Админ | Дата: 2-07-2016, 04:00 | Просмотров: 26

    Производство: США/Nickelodeon Animation Studios
    Жанр: Фэнтези, Приключения, Mультфильм, Семейный
    Режиссер: Майкл Данте ДиМартино, Брайан Кониецко
    Актеры: Джанет Вэрни, Ди Брэдли Бейкер, Джефф Беннетт, Дэвид Фаустино, П.Дж. Бирн, Дж.К. Симмонс, Сейшелл Гэбриел, Кирнан Шипка, Минди Стерлинг, Логан Уэллс

    Описание

    Спустя шесть месяцев после революции Уравнителей, Корра, овладевшая всеми четырьмя стихиями, магией энергии и состоянием Аватара, должна узнать больше о мире Духов. Для этого она отказывается от своего учителя Тензина и обращается за помощью к своему дяде Уналаку, вождю Северного Племени Воды. Однако у Уналака есть свои планы на Аватара, и вскоре Корра оказывается втянутой в войну Племён Воды и великое противостояние света и тьмы.

    Возраст: 6+ (зрителям, достигшим 6 лет)
    Продолжительность: ~00: 24: 00 серия
    Качество видео: WEB-DLRip
    Перевод: Многоголосый закадровый -Flux Team , дублированный -SDI sun-studio
    Автор перевода: HelenZubr, в редакции AndreyP - Flux Team
    Язык субтитров: Русский, Английский
    Вид субтитров: Вшитые
    Видео: AVC/H.264 (High@L3.1 ), 640x480@852x480 (16: 9), 800 Кбит/сек
    Аудио #1: AAC, 2 канала, 128 Кбит/сек - русский (многоголосый закадровый, Flux Team)
    Аудио #2: AAC, 2 канала, 128 Кбит/сек - русский (дублированный, SDI sun-studio)
    Аудио #3: AAC, 2 канала, 128 Кбит/сек - английский (оригинальный)
    Код:

    General
    Complete name : C:DownloadsAVATARАватар Легенда о Корре (Книга 2) Духи (2013).480p.WEB-DLRip.[NNMclub]Легенда о Корре.S02E01_Мятежный дух.480p.WEB-DLRip.AAC.x264.mp4
    Format : MPEG-4
    Format profile : Base Media
    Codec ID : isom (isom/avc1/iso2)
    File size : 204 MiB
    Duration : 23mn 57s
    Overall bit rate mode : Variable
    Overall bit rate : 1 193 Kbps
    Collection : Аватар: Легенда о Корре
    Season : 2
    Album : Аватар: Легенда о Корре, Season 2
    Album/Sorted by : Аватар: Легенда о Корре, Season 2
    Part : 1
    Part/Position : 2
    Track name : Мятежный дух
    Track name/Position : 1
    Performer : Аватар: Легенда о Корре
    Genre : Animation, Action, Adventure
    ContentType : TV Show
    Description : Прошло полгода после событий первой книги. Корра осваивает магию воздуха под руководством Тензина, Мако нашёл себя в силах охраны правопорядка, Болин продолжает заниматься пробендингом, а Асами пытается спасти компанию отца. .
    Recorded date : UTC 2013-09-13 22:05:27
    Encoded date : UTC 2016-06-30 21:16:53
    Tagged date : UTC 2016-06-30 21:28:57
    Cover : Yes
    Comment : There\'s a new Avatar in town!
    Rating : None
    TVNetworkName : Nickelodeon
    Part_ID : 201
    Title/Sort : Мятежный дух/Аватар: Легенда о Корре
    LongDescription : Прошло полгода после событий первой книги. Корра осваивает магию воздуха под руководством Тензина, Мако нашёл себя в силах охраны правопорядка, Болин продолжает заниматься пробендингом, а Асами пытается спасти компанию отца.
    ContentRating : us-tv|TV-Y7|200|
    Video
    ID : 1
    Format : AVC
    Format/Info : Advanced Video Codec
    Format profile :High@L3.1
    Format settings, CABAC : No
    Format settings, ReFrames : 4 frames
    Codec ID : avc1
    Codec ID/Info : Advanced Video Coding
    Duration : 23mn 57s
    Bit rate : 800 Kbps
    Maximum bit rate : 3 764 Kbps
    Width : 640 pixels
    Height : 480 pixels
    Display aspect ratio : 16:9
    Original display aspect ratio : 16:9
    Frame rate mode : Constant
    Frame rate : 23.976 (24000/1001) fps
    Color space : YUV
    Chroma subsampling : 4:2:0
    Bit depth : 8 bits
    Scan type : Progressive
    Bits/(Pixel*Frame) : 0.109
    Stream size : 137 MiB (67%)
    Writing library : x264 core 148 r2692 64f4e24
    Encoding settings : cabac=0/ref=4/deblock=1:0:0/analyse=0x3:0x133/me=umh/subme=7/psy=1/psy_rd=0.40:0.00/mixed_ref=1/me_range=32/chroma_me=1/trellis=2/8x8dct=1/cqm=0/deadzone=21, 11/fast_pskip=0/chroma_qp_offset=-2/threads=12/lookahead_threads=2/sliced_threads=0/nr=0/decimate=0/interlaced=0/bluray_compat=0/constrained_intra=0/bframes=3/b_pyramid=2/b_adapt=2/b_bias=0/direct=3/weightb=1/open_gop=0/weightp=2/keyint=240/keyint_min=23/scenecut=40/intra_refresh=0/rc_lookahead=40/rc=2pass/mbtree=1/bitrate=800/ratetol=1.0/qcomp=0.60/qpmin=0/qpmax=69/qpstep=4/cplxblur=20.0/qblur=0.5/vbv_maxrate=9000/vbv_bufsize=9000/nal_hrd=none/filler=0/ip_ratio=1.40/aq=1:0.60
    Language : English
    Encoded date : UTC 2016-06-30 21:16:53
    Tagged date : UTC 2016-06-30 21:16:56
    Menus : 7
    Audio #1
    ID : 2
    Format : AAC
    Format/Info : Advanced Audio Codec
    Format profile : LC
    Codec ID : 40
    Duration : 23mn 57s
    Bit rate mode : Variable
    Bit rate : 128 Kbps
    Maximum bit rate : 133 Kbps
    Channel(s) : 2 channels
    Channel positions : Front: L R
    Sampling rate : 48.0 KHz
    Frame rate : 46.875 fps (1024 spf)
    Compression mode : Lossy
    Stream size : 21.9 MiB (11%)
    Title : MVO [Flux Team]/MVO [Flux Team]
    Language : Russian
    Default : Yes
    Alternate group : 1
    Encoded date : UTC 2016-06-30 21:16:54
    Tagged date : UTC 2016-06-30 21:16:56
    Audio #2
    ID : 3
    Format : AAC
    Format/Info : Advanced Audio Codec
    Format profile : LC
    Codec ID : 40
    Duration : 23mn 57s
    Bit rate mode : Variable
    Bit rate : 128 Kbps
    Maximum bit rate : 133 Kbps
    Channel(s) : 2 channels
    Channel positions : Front: L R
    Sampling rate : 48.0 KHz
    Frame rate : 46.875 fps (1024 spf)
    Compression mode : Lossy
    Stream size : 21.9 MiB (11%)
    Title : DUB [SDI Media]/DUB [SDI Media]
    Language : Russian
    Default : No
    Alternate group : 1
    Encoded date : UTC 2016-06-30 21:16:55
    Tagged date : UTC 2016-06-30 21:16:56
    Audio #3
    ID : 4
    Format : AAC
    Format/Info : Advanced Audio Codec
    Format profile : LC
    Codec ID : 40
    Duration : 23mn 57s
    Bit rate mode : Variable
    Bit rate : 128 Kbps
    Maximum bit rate : 134 Kbps
    Channel(s) : 2 channels
    Channel positions : Front: L R
    Sampling rate : 48.0 KHz
    Frame rate : 46.875 fps (1024 spf)
    Compression mode : Lossy
    Stream size : 21.9 MiB (11%)
    Language : English
    Default : No
    Alternate group : 1
    Encoded date : UTC 2016-06-30 21:16:56
    Tagged date : UTC 2016-06-30 21:16:56
    Text #1
    ID : 5
    Format : Timed Text
    Muxing mode : sbtl
    Codec ID : tx3g
    Duration : 23mn 18s
    Bit rate mode : Variable
    Bit rate : 135 bps
    Stream size : 23.1 KiB (0%)
    Language : Russian
    Default : Yes
    Forced : No
    Alternate group : 2
    Encoded date : UTC 2016-06-30 21:16:56
    Tagged date : UTC 2016-06-30 21:16:56
    Text #2
    ID : 6
    Format : Timed Text
    Muxing mode : sbtl
    Codec ID : tx3g
    Duration : 23mn 30s
    Bit rate mode : Variable
    Bit rate : 90 bps
    Stream size : 15.4 KiB (0%)
    Language : English
    Default : No
    Forced : No
    Alternate group : 2
    Encoded date : UTC 2016-06-30 21:16:56
    Tagged date : UTC 2016-06-30 21:16:56
    Menu #1
    00:00:00.000 : Chapter 1
    00:10:00.000 : Chapter 2
    00:20:00.000 : Chapter 3
    Menu #2
    ID : 7
    Codec ID : text
    Duration : 23mn 57s
    Language : English
    Encoded date : UTC 2016-06-30 21:28:53
    Tagged date : UTC 2016-06-30 21:28:53
    Bit rate mode : CBR
    Menu For : 1
    Duration_LastFrame : -362607
    00:00:00.000 : Chapter 1
    00:10:00.000 : Chapter 2
    00:20:00.000 : Chapter 3


    Скриншоты для ознакомления




    Легенда о Корре/The Legend of Korra (2013) WEB-DLRip [H.264] (сезон 2, серии 1-14 из 14) (Flux Team, SDI sun-studio) [MP4|640x480@852x480]
    загрузка...
    Рейтинг →
     (голосов: 1, оценка 5/5, голосовать можно 1 раз )

    Другие торренты по теме:

  • Аватар легенда о Корре / Legend of Korra Book 4 (2013) WEB-DL [H.264 / 1080p-LQ] (Сезон 4, Серии 1 из 13) (Обновляемая) скачать через торрент бесплатно
  • Аватар легенда о Корре / Legend of Korra Book 1 (2012) BDRip [1080p] (Сезон 1, серии 1-2 из 12) [ Обновляемая] (Flux Team)
  • Аватар легенда о Корре. Книга2 - Духи. / Legend of Korra Book 2 (2013) WEB-DL [H.264 / 1080p-LQ] (Сезон 2, Серии 14 из 14)
  • Аватар: Легенда о Корре / The Legend of Korra (2014) WEB-DL [H.264 / 1080p-LQ] (Сезон 4, Серии 1-8 из 13) [LE-Production] [обновляемая] скачать через торрент бесплатно
  • Аватар: Легенда о Корре / The Last Airbender: The Legend of Korra (3 сезон: 1-13 серии из 13) (2014) WEB-DLRip [720p] (LE-Production) скачать через торрент бесплатно
  • Аватар легенда о Корре / Legend of Korra Book 3 (2014) BDRip [1080p] (Сезон 3, серии 1-13 из 13) (Flux Team)
  • Аватар легенда о Корре / Legend of Korra Book 4 (2014) BDRip [H.264 / 1080p] (Сезон 4, серии 1-13 из 13) (DUBFlux Team) скачать через торрент бесплатно
  • Аватар легенда о Корре. Книга2 - Духи. / Legend of Korra Book 2 (2013) WEB-DL [H.264 / 1080p-LQ] (Сезон 2, Серии 14 из 14)


    • Комментарии (0):

      Информация

      Информация

        Посетители, находящиеся в группе Гости, не могут оставлять комментарии в данной новости.

        ↓ Меню




        ↓ Опрос

        Вы добавили сайт в закладки?
        Да
        Нет


        Top 10 за месяц (КПК и мобильные)