.
Авторизация | Регистрация
Хочешь лучшие торренты? Добавь свой email!
Добавить

Торрент скачать бесплатно

» » Наедине со всеми (2016) TVRip [H.264] (сезон 4, выпуски 66-80) [MP4|1280x720] торрент скачать бесплатно




    Наедине со всеми (2016) TVRip [H.264] (сезон 4, выпуски 66-80) [MP4|1280x720] торрент скачать бесплатно

    Опубликовал: Админ | Дата: 30-06-2016, 16:42 | Просмотров: 67

    Производство: Россия/1 канал
    Жанр: Документальный
    Ведущая: Юлия Меньшова
    Гости: Лилита Озолиня, Елизавета Соломина, Юрий Соломин, Ирина Салтыкова, Владимир Басов, Ефим Шифрин, Марина Яковлева, Ольга Антонова, Олег Митяев, Игорь Скляр; спецпвыпуски: Жизнь без излишеств, Не женское дело, Повезло с фамилией?!, Суррогатная бабушка, Роман с аферистом

    Описание

    Юлия Меньшова: Наедине со всеми — это программа-портрет: люди через призму наиболее известных, серьезных и важных событий их жизни. Нас интересует не столько информация, сколько чувства. Конечно, степень открытости будет зависеть от собеседника. Но многие гости программы знают меня лично, и это помогает сделать разговор комфортным для собеседника и говорить на темы, о которых они обычно предпочитают молчать. Очень часто журналисты задают стандартные вопросы, и суть человека ускользает. Моя задача поймать эту суть, и мне кажется, она заключена именно в чувствах, а не в словах. При подготовке к каждой программе я читаю громадное количество информации о герое, поднимаю весь бэкграунд и попытаюсь уловить, что интересует людей в отношении моего героя
    Возраст: 16+ (зрителям, достигшим 16 лет)
    Продолжительность: ~ 00: 45: 00 серия
    Качество видео: TVRip
    Видео: AVC/H.264, 1280x720, ~3800 Kbps
    Аудио: AAC, 2 ch, 107 Kbps, VBR
    Код:

    General
    Complete name : E:TorrentНаедине со всеми 4 сезонНаедине со всеми 4 сезон 66-80 выпускиВладимир Басов.mp4
    Format : MPEG-4
    Format profile : Base Media
    Codec ID : isom
    File size : 1.23 GiB
    Duration : 45mn 2s
    Overall bit rate mode : Variable
    Overall bit rate : 3 910 Kbps
    Encoded date : UTC 2016-03-22 10:59:03
    Tagged date : UTC 2016-03-22 10:59:03
    Writing application : Lavf53.32.100
    Video
    ID : 1
    Format : AVC
    Format/Info : Advanced Video Codec
    Format profile :High@L3.1
    Format settings, CABAC : Yes
    Format settings, ReFrames : 4 frames
    Codec ID : avc1
    Codec ID/Info : Advanced Video Coding
    Duration : 45mn 2s
    Bit rate : 3 800 Kbps
    Width : 1 280 pixels
    Height : 720 pixels
    Display aspect ratio : 16:9
    Frame rate mode : Constant
    Frame rate : 25.000 fps
    Color space : YUV
    Chroma subsampling : 4:2:0
    Bit depth : 8 bits
    Scan type : Progressive
    Bits/(Pixel*Frame) : 0.165
    Stream size : 1.19 GiB (97%)
    Writing library : x264 core 118
    Encoded date : UTC 2016-03-22 10:59:03
    Tagged date : UTC 2016-03-22 10:59:03
    Audio
    ID : 2
    Format : AAC
    Format/Info : Advanced Audio Codec
    Format profile : LC
    Codec ID : 40
    Duration : 45mn 2s
    Bit rate mode : Variable
    Bit rate : 107 Kbps
    Maximum bit rate : 128 Kbps
    Channel(s) : 2 channels
    Channel positions : Front: L R
    Sampling rate : 48.0 KHz
    Compression mode : Lossy
    Stream size : 34.5 MiB (3%)
    Encoded date : UTC 2016-03-22 10:59:03
    Tagged date : UTC 2016-03-22 10:59:03


    Скриншоты для ознакомления




    Наедине со всеми (2016) TVRip [H.264] (сезон 4, выпуски 66-80) [MP4|1280x720]
    загрузка...
    Рейтинг →
     (голосов: 1, оценка 3/5, голосовать можно 1 раз )

    Другие торренты по теме:

  • Наедине со всеми (выпуски 11-20) (2014) [MP4|640x360] <TVRip H.264>
  • Наедине со всеми (выпуски 1-10) (2014) [MP4|640x360] <TVRip H.264>
  • Наедине со всеми (выпуски 31-45) (2013-2014) [MP4|640x360] <TVRip H.264> скачать через торрент бесплатно
  • Наедине со всеми (выпуски 21-30) (2014) [MP4|640x360] <TVRip H.264> скачать через торрент бесплатно
  • Наедине со всеми (выпуски 46-60) (2013-2014) [MP4|640x360] <TVRip H.264>
  • Наедине со всеми (выпуски 61-75) (2014) [MP4|640x360] <TVRip H.264> скачать через торрент бесплатно
  • Наедине со всеми (выпуски 61-75) (2014) [MP4|640x360] <TVRip H.264> скачать через торрент бесплатно
  • Наедине со всеми (выпуски 76-85) (2014) [MP4|640x360] <TVRip H.264>


    • Комментарии (0):

      Информация

      Информация

        Посетители, находящиеся в группе Гости, не могут оставлять комментарии в данной новости.

        ↓ Меню




        ↓ Опрос

        Вы добавили сайт в закладки?
        Да
        Нет


        Top 10 за месяц (КПК и мобильные)