.
Авторизация | Регистрация
Хочешь лучшие торренты? Добавь свой email!
Добавить

Торрент скачать бесплатно

» » Красавица и чудовище / Beauty and the Beast (2012-2015) WEB-DLRip [H.264] (сезон 1-3, серии 1-57 из 57) LostFilm [MP4|720p] торрент скачать бесплатно




    Красавица и чудовище / Beauty and the Beast (2012-2015) WEB-DLRip [H.264] (сезон 1-3, серии 1-57 из 57) LostFilm [MP4|720p] торрент скачать бесплатно

    Опубликовал: Админ | Дата: 6-06-2016, 14:13 | Просмотров: 52

    Производство: США
    Жанр: Драма, Криминал, Детектив
    Режиссер: Гэри Фледер
    Актеры: Кристин Кройк, Джей Райан, Джейсон Делайн, Алекс Пэкстон, Николь Гэйл Андерсон, Крис Площански и др.

    Описание

    Девять лет назад студентка юридического факультета Кэтрин Чендлер стала свидетелем того, как два человека застрелили ее мать. Девушке практически чудом удалось уцелеть: в самую последнюю секунду ей на помощь пришел загадочный, невероятно сильный помощник, похожий одновременно на монстра и на человека. Но жизнь не стоит на месте, и теперь Чендлер работает в убойном отделе вместе с напарницей Тесс, то и дело мысленно возвращаясь в день трагедии. В очередной раз она начинает расследование убийства, в ходе которого знакомится с доктором и бывшим военным Винсентом Келлером. Мужчина по документам уже десять лет как мертв: какая-то страшная тайна заставляет его прятаться от общественности. О таком странном сюжете не догадывалась даже Верка Сердючка. К тому же оказывается, что именно он давным-давно спас жизнь Кэт. Отважная девушка сближается с Винсентом в надежде узнать, из-за чего погибла ее мать. Вскоре они становятся друзьями — он доверяет ей свой секрет, она допускает его до расследований. И все бы хорошо, только спустя некоторое время героиня обнаруживает, что играет с огнем, ведь ее жизнь то и дело подвергается опасности.

    Продолжительность: ~ 00: 43: 00 серия
    Качество видео: WEB-DLRip 720p
    Перевод: Многоголосый закадровый, профессиональный -LostFilm
    Видео: AVC/H.264, 1280x720 (16: 9), ~4000 Кбит/сек
    Аудио: AAC, 2 канала, ~128-256 Кбит/сек - русский (многоголосый закадровый)
    Код:

    Полное имя : E:Красавица_и_чудовище_LostFilm_MP4_HD720p_[NNM-CLUB]Beauty.and.the.Beast.S01E01.720p.MP4.LostFilm.mp4
    Формат : MPEG-4
    Профиль формата : Base Media
    Идентификатор кодека : isom
    Размер файла : 1, 25 Гбайт
    Продолжительность : 42 м.
    Режим общего битрейта : Переменный
    Общий поток : 4180 Кбит/сек
    Коллекция : Красавица и чудовище
    Сезон : 1
    Альбом : Красавица и чудовище, Сезон 1
    Альбом/Исполнитель : Красавица и чудовище
    Часть : 1
    Часть/Положение : 1
    Трек : Пилот
    Трек/Положение : 1
    Исполнитель : Красавица и чудовище
    Жанр : Drama
    Тип содержимого : TV Show
    Дата записи : 2012
    Дата кодирования : UTC 2012-12-21 17:36:25
    Дата пометки : UTC 2012-12-30 13:20:23
    Программа кодирования : LostCoder
    Правообладатель : LostFilm.TV (c)
    Обложка : Yes
    Примечание : Детектив убойного отдела Кэтрин Чандлер работает в паре с доктором Келлером, бывшим солдатом американской армии. Келлер, в результате сомнительных медицинских экспериментов, становится обладателем запредельной физической силы.
    Part_ID : 101
    Видео
    Идентификатор : 1
    Формат : AVC
    Формат/Информация : Advanced Video Codec
    Профиль формата :High@L3.1
    Параметр CABAC формата : Нет
    Параметр ReFrames формата : 2 кадра
    Идентификатор кодека : avc1
    Идентификатор кодека/Информация : Advanced Video Coding
    Продолжительность : 42 м.
    Битрейт : 4000 Кбит/сек
    Максимальный битрейт : 13, 9 Мбит/сек
    Ширина : 1280 пикселей
    Высота : 720 пикселей
    Соотношение сторон : 16:9
    Режим частоты кадров : Переменный
    Частота кадров : 23, 976 кадра/сек
    Минимальная частота кадров : 23, 974 кадра/сек
    Максимальная частота кадров : 23, 981 кадра/сек
    Цветовое пространство : YUV
    Субдискретизация насыщенности : 4:2:0
    Битовая глубина : 8 бит
    Тип развёртки : Прогрессивная
    Бит/(Пиксели*Кадры) : 0.181
    Размер потока : 1, 21 Гбайт (97%)
    Библиотека кодирования : x264 core 112 r1834 a51816a
    Настройки программы : cabac=0/ref=3/deblock=1:0:0/analyse=0x1:0x111/me=hex/subme=7/psy=1/psy_rd=1.00:0.00/mixed_ref=1/me_range=16/chroma_me=1/trellis=1/8x8dct=0/cqm=0/deadzone=21, 11/fast_pskip=1/chroma_qp_offset=-2/threads=6/sliced_threads=0/nr=0/decimate=1/interlaced=0/constrained_intra=0/bframes=3/b_pyramid=2/b_adapt=1/b_bias=0/direct=1/weightb=1/open_gop=0/weightp=2/keyint=250/keyint_min=25/scenecut=40/intra_refresh=0/rc_lookahead=40/rc=abr/mbtree=1/bitrate=4000/ratetol=1.0/qcomp=0.60/qpmin=0/qpmax=51/qpstep=4/vbv_maxrate=5000/vbv_bufsize=2000/ip_ratio=1.40/aq=1:1.00/nal_hrd=none
    Язык : English
    Дата пометки : UTC 2012-12-21 17:37:06
    Основные цвета : BT.709
    Характеристики трансфера : BT.709
    Коэффициенты матрицы : BT.709
    Аудио
    Идентификатор : 2
    Формат : AAC
    Формат/Информация : Advanced Audio Codec
    Профиль формата : LC
    Идентификатор кодека : 40
    Продолжительность : 42 м.
    Вид битрейта : Переменный
    Битрейт : 122 Кбит/сек
    Максимальный битрейт : 175 Кбит/сек
    Каналы : 2 канала
    Расположение каналов : Front: L R
    Частота : 48, 0 КГц
    Метод сжатия : С потерями
    Размер потока : 37, 2 Мбайт (3%)
    Дата кодирования : UTC 2012-12-21 17:37:04
    Дата пометки : UTC 2012-12-21 17:37:06


    Скриншоты для ознакомления




    Красавица и чудовище/Beauty and the Beast (2012-2015) WEB-DLRip [H.264] (сезон 1-3, серии 1-57 из 57) LostFilm [MP4|720p]
    загрузка...
    Рейтинг →
     (голосов: 1, оценка 5/5, голосовать можно 1 раз )

    Другие торренты по теме:

  • Ольга Володарская | Красавица-чудовище (2015) [FB2] скачать через торрент бесплатно
  • Алла Лагутина | Мисс Страна. Чудовище и красавица (2017) [FB2]
  • Красавица и чудовище / Beauty and the Beast (1991) BDRip
  • Красавица и чудовище: Чудесное Рождество / Beauty and the Beast: The Enchanted Christmas (1997) BDRip [H.264 / 720p-LQ]
  • Красавица и чудовище / Die Schone und das Biest (2012) SATRip
  • Красавица и чудовище / La belle et la bete (2014) HDRip скачать через торрент бесплатно
  • Красавица и чудовище / La belle et la bete (2014) HDRip скачать через торрент бесплатно
  • Красавица и чудовище / La belle et la bete (2014) BDRip [H.264] скачать через торрент бесплатно


    • Комментарии (0):

      Информация

      Информация

        Посетители, находящиеся в группе Гости, не могут оставлять комментарии в данной новости.

        ↓ Меню




        ↓ Опрос

        Вы добавили сайт в закладки?
        Да
        Нет


        Top 10 за месяц (КПК и мобильные)