.
Авторизация | Регистрация
Хочешь лучшие торренты? Добавь свой email!
Добавить

Торрент скачать бесплатно

» » Познать неизведанное / Approaching the Unknown (2016) WEB-DL [H.264 / 1080p-LQ] [EN / EN Sub] торрент скачать бесплатно




    Познать неизведанное / Approaching the Unknown (2016) WEB-DL [H.264 / 1080p-LQ] [EN / EN Sub] торрент скачать бесплатно

    Опубликовал: Админ | Дата: 4-06-2016, 04:00 | Просмотров: 173

    Производство: США, 3311 Productions, Loveless, Rooftop Films, TideRock Media
    Жанр: Фантастика, Триллер, Драма
    Режиссер: Марк Элайджа Розенберг
    Сценарий: Марк Элайджа Розенберг
    Продюсеры: Джейсон Майкл Берман, П. Дженнифер Дэна, Томас Б. Фо

    Актеры
    Андерс Даниелсен Лье, Марк Стронг, Луиза Янофски, Лоренцо Беронилла, Чарльз Бэйкер, Томас Ухлиарик, Лорен Рейто, Лора Ли Экобелли, Санаа Лэтэн, Гарри Л. Седдон...

    Описание

    Познать неизведанное - это история американского космонавта Уильяма Стэнфорса, который готовится к тому, чтобы стать первым человеком, который высадится на Марсе. Эта научно-фантастическая драма не оставит равнодушными всех, кому близка идея освоения космического пространства.

    Премьера (мир): 3 июня 2016
    Продолжительность: 01: 30: 17
    Качество видео: WEB-DL 1080p
    Перевод: Отсутствует
    Язык озвучки: Английский
    Язык субтитров: Английский
    Вид субтитров: Вшитые отключаемые
    Видео: AVC, 1916x1076 (16: 9), 23.976 fps, 4 838 Kbps (0.098 bit/pixel)
    Аудио: AC-3, 48.0 KHz, 6 ch, 384 Kbps, CBR (English)
    Код:

    General
    Unique ID : 175160178441568546331046381530992636335 (0x83C69F8EC9124D77B2314949568071AF)
    Complete name : E:Approaching.the.Unknown.2016.1080p.WEB-DL.DD5.1.H264-FGT.mkv
    Format : Matroska
    Format version : Version 4/Version 2
    File size : 3.36 GiB
    Duration : 1h 30mn
    Overall bit rate : 5 328 Kbps
    Movie name : Approaching.the.Unknown.2016.1080p.WEB-DL.DD5.1.H264-FGT
    Encoded date : UTC 2016-06-03 04:13:44
    Writing application : mkvmerge v9.2.0 (\'Photograph\') 64bit
    Writing library : libebml v1.3.3 + libmatroska v1.4.4
    Cover : Yes
    Attachments : cover_land.jpg/small_cover.jpg/small_cover_land.jpg/cover.jpg
    Video
    ID : 1
    Format : AVC
    Format/Info : Advanced Video Codec
    Format profile : High@L4
    Format settings, CABAC : Yes
    Format settings, ReFrames : 4 frames
    Codec ID : V_MPEG4/ISO/AVC
    Duration : 1h 30mn
    Bit rate : 4 838 Kbps
    Width : 1 916 pixels
    Height : 1 076 pixels
    Display aspect ratio : 16:9
    Frame rate mode : Constant
    Frame rate : 23.976 fps
    Color space : YUV
    Chroma subsampling : 4:2:0
    Bit depth : 8 bits
    Scan type : Progressive
    Bits/(Pixel*Frame) : 0.098
    Stream size : 3.05 GiB (91%)
    Title : Approaching.the.Unknown.2016.1080p.WEB-DL.DD5.1.H264-FGT
    Language : English
    Default : Yes
    Forced : No
    Color range : Limited
    Color primaries : BT.709
    Transfer characteristics : BT.709
    Matrix coefficients : BT.709
    Audio
    ID : 2
    Format : AC-3
    Format/Info : Audio Coding 3
    Mode extension : CM (complete main)
    Format settings, Endianness : Big
    Codec ID : A_AC3
    Duration : 1h 30mn
    Bit rate mode : Constant
    Bit rate : 384 Kbps
    Channel(s) : 6 channels
    Channel positions : Front: L C R, Side: L R, LFE
    Sampling rate : 48.0 KHz
    Frame rate : 31.250 fps (1536 spf)
    Compression mode : Lossy
    Stream size : 248 MiB (7%)
    Title : Approaching.the.Unknown.2016.1080p.WEB-DL.DD5.1.H264-FGT
    Language : English
    Default : Yes
    Forced : No
    Text
    ID : 3
    Format : UTF-8
    Codec ID : S_TEXT/UTF8
    Codec ID/Info : UTF-8 Plain Text
    Language : English
    Default : Yes
    Forced : No
    Menu
    00:00:00.000 : en:Chapter 1
    00:08:58.000 : en:Chapter 2
    00:17:23.000 : en:Chapter 3
    00:24:36.000 : en:Chapter 4
    00:32:11.000 : en:Chapter 5
    00:40:41.000 : en:Chapter 6
    00:48:48.000 : en:Chapter 7
    00:57:18.000 : en:Chapter 8
    01:06:26.000 : en:Chapter 9
    01:13:59.000 : en:Chapter 10
    01:23:13.000 : en:Chapter 11


    Скриншоты для ознакомления




    Онлайн видео Познать неизведанное



    Познать неизведанное/Approaching the Unknown (2016) WEB-DL [H.264/1080p-LQ] [EN/EN Sub]
    загрузка...
    Рейтинг →
     (голосов: 1, оценка 5/5, голосовать можно 1 раз )

    Другие торренты по теме:

  • Познать неизведанное / Approaching the Unknown (2016) WEB-DLRip
  • Познать неизведанное / Approaching the Unknown (2016) WEB-DL [H.264 / 1080p-LQ]
  • Познать неизведанное / Approaching the Unknown (2016) WEB-DL [H.264 / 1080p-LQ]
  • Познать неизведанное / Approaching the Unknown (2016)


    • Комментарии (0):

      Информация

      Информация

        Посетители, находящиеся в группе Гости, не могут оставлять комментарии в данной новости.

        ↓ Меню




        ↓ Опрос

        Вы добавили сайт в закладки?
        Да
        Нет


        Top 10 за месяц (Фильмы)