.
Авторизация | Регистрация
Хочешь лучшие торренты? Добавь свой email!
Добавить

Торрент скачать бесплатно

» » Сладкая жизнь (2016) DVB (сезон 3, серии 1-7 из 7) торрент скачать бесплатно




    Сладкая жизнь (2016) DVB (сезон 3, серии 1-7 из 7) торрент скачать бесплатно

    Опубликовал: Админ | Дата: 4-06-2016, 04:00 | Просмотров: 96

    Производство: Россия/Good Story Media по заказу ТНТ
    Жанр: драма
    Режиссер: Давид Кочаров

    Актеры
    Марта Носова, Никита Панфилов, Лукерья Ильяшенко, Анастасия Меськова, Мария Шумакова, Роман Маякин, Антон Денисенко, Эдуард Мацаберидзе, Артур Бичахчян, Анатолий Горячев, Дарья Белоусова (II), Данила Дунаев, Нина Гусева, Ольга Медынич, Александр Робак, Анжелика Морозова, Алексей Варущенко, Ирина Темичева и др.

    Описание

    Два первых сезон любимого сериалаа Сладкой жизни показали, что происходит с людьми, которые живут так, как им хочется. В финале герои оказываются на самом дне и разными способами пытаются вернуться в зону комфорта, чтобы снова зажить сладкой жизнью. Но будет ли она такой, как раньше? Это каждому герою предстоит решить для себя самому.

    Возраст: 16+ (зрителям, достигшим 16 лет)
    Продолжительность: ~00: 43: 00 серия
    Качество видео: DVB
    Видео: MPEG-2, 720x576@768х576 (4: 3), ~4700 Kbps
    Аудио: MP2, 2 ch, 192 Kbps, CBR
    Код:
    Общее
    Полное имя : F:DOWNLOADSСладкая жизнь (3 сезон любимого сериала) (2016) DVBСладкая жизнь 3 - 01 серия.mpg
    Формат : MPEG-PS
    Размер файла : 1, 52 Гбайт
    Продолжительность : 42 м.
    Режим общего битрейта : Переменный
    Общий поток : 5074 Кбит/сек
    Видео
    Идентификатор : 224 (0xE0)
    Формат : MPEG Video
    Версия формата : Version 2
    Профиль формата : Main@Main
    Параметр BVOP формата : Да
    Параметр матрицы формата : Выборочная
    Параметр GOP формата : Variable
    Продолжительность : 42 м.
    Вид битрейта : Переменный
    Битрейт : 4781 Кбит/сек
    Максимальный битрейт : 15, 0 Мбит/сек
    Ширина : 720 пикселей
    Высота : 576 пикселей
    Соотношение сторон : 4:3
    Частота кадров : 25, 000 кадров/сек
    Стандарт вещания : PAL
    Цветовое пространство : YUV
    Субдискретизация насыщенности : 4:2:0
    Битовая глубина : 8 бит
    Метод сжатия : С потерями
    Бит/(Пиксели*Кадры) : 0.461
    Временной код первого кадра : 00:00:00:00
    Оригинал временного кода : Group of pictures t_head
    Размер потока : 1, 43 Гбайт (94%)
    Аудио
    Идентификатор : 192 (0xC0)
    Формат : MPEG Audio
    Версия формата : Version 1
    Профиль формата : Layer 2
    Продолжительность : 42 м.
    Вид битрейта : Постоянный
    Битрейт : 192 Кбит/сек
    Каналы : 2 канала
    Частота : 48, 0 КГц
    Метод сжатия : С потерями
    Размер потока : 58, 9 Мбайт (4%)


    Скриншоты для ознакомления




    Онлайн видео Сладкая жизнь (2016) DVB (сезон любимого сериала 3, серии 1



    Сладкая жизнь (2016) DVB (сезон 3, серии 1-7 из 7)
    загрузка...
    Рейтинг →
     (голосов: 1, оценка 4/5, голосовать можно 1 раз )

    Другие торренты по теме:

  • Сладкая жизнь (2015) SATRip (сезон 2, серии 1 из 8) (обновляемая) скачать через торрент бесплатно
  • Сладкая жизнь (2015) WEB-DLRip [H.264 / 720p-LQ] (сезон 2, серии 1- из 8) (обновляемая) скачать через торрент бесплатно
  • Сладкая жизнь (2015) WEB-DLRip (сезон 2, серии 1- из 8) (обновляемая) скачать через торрент бесплатно
  • Сладкая жизнь (2015) WEB-DLRip [H.264] (сезон 2, серии 1-3 из 8) (обновляемая) скачать через торрент бесплатно
  • Сладкая жизнь (2016) DVB [H.264] (сезон 3, серии 1- из 7) (обновляемая)
  • Сладкая жизнь (2016) DVBRip [H.264] (сезон 3, серии 1- из 7) (обновляемая)
  • Сладкая жизнь (2016) SATRip (сезон 3, серии 1 из 7) (обновляемая)
  • Сладкая жизнь (2016) WEB-DLRip (сезон 3, серии 1- из 7) (обновляемая)


    • Комментарии (0):

      Информация

      Информация

        Посетители, находящиеся в группе Гости, не могут оставлять комментарии в данной новости.

        ↓ Меню




        ↓ Опрос

        Вы добавили сайт в закладки?
        Да
        Нет


        Top 10 за месяц (Фильмы)