.
Авторизация | Регистрация
Хочешь лучшие торренты? Добавь свой email!
Добавить

Торрент скачать бесплатно

» » Выживший / The Revenant (2015) DVD9 [BD -> DVD] торрент скачать бесплатно




    Выживший / The Revenant (2015) DVD9 [BD -> DVD] торрент скачать бесплатно

    Опубликовал: Админ | Дата: 3-06-2016, 04:00 | Просмотров: 1476

    Производство: США, Гонконг, Тайвань, Канада/20th Century Fox, New Regency Pictures, RatPac Entertainment
    Жанр: Триллер, драма, приключения, вестерн
    Режиссер: Алехандро Гонсалес Иньярриту
    Продюсеры: Стив Голин, Алехандро Гонсалес Иньярриту, Арнон Милчен

    Актеры
    Леонардо ДиКаприо, Том Харди, Донал Глисон, Уилл Поултер, Форрест Гудлак, Пол Андерсон, Кристоффер Йонер, Джошуа Бёрдж, Дуан Ховард, Мила Нахеко

    Описание

    Охотник Хью Гласс серьезно ранен на неизведанных просторах американского Дикого Запада. Товарищ Хью по отряду покорителей новых земель Джон Фицжеральд предательски оставляет его умирать в одиночестве. Теперь у Гласса осталось только одно оружие — его сила воли. Он готов бросить вызов первобытной природе, суровой зиме и враждебным племенам индейцев, только чтобы выжить и отомстить Фицжеральду.

    Возраст: 18+ (зрителям, достигшим 18 лет. запрещено для детей)
    Рейтинг MPAA: R (лицам до 17 лет обязательно присутствие взрослого)
    Дата мировой премьеры: 16 декабря 2015
    Дата российской премьеры: 7 января 2016, Двадцатый Век Фокс СНГ

    Продолжительность: 02: 36: 12
    Качество видео: DVD9 BD - DVD
    Перевод: Дублированный, авторский (одноголосый закадровый)
    Субтитры: Вшитые отключаемые
    Язык субтитров: Русский, английский
    Доп. материалы: Отсутствуют
    Видео: MPEG-2, 720x480@853x480 (NTSC 16: 9), ~6587 Kbps
    Аудио 1: AC3 5.1, 448 Kbps (Русский - дублированный)
    Аудио 2: AC3 5.1, 448 Kbps (Русский - одноголосый закадровый, Ю. Сербин)
    Аудио 3: AC3 5.1, 448 Kbps (Английский - оригинал)
    Код:
    Title: The Revenant (2015) DVD9 [BD-DVD]
    Size: 7.84 Gb ( 8 216 266, 00 KBytes ) - DVD-9
    Enabled regions: 1, 2, 3, 4, 5, 6, 7, 8
    VTS_01 :
    Play Length: 02:36:12
    Video: NTSC 16:9 (720x480) VBR, Auto Letterboxed
    Audio:
    Russian (Dolby AC3, 6 ch)
    Russian (Dolby AC3, 6 ch)
    English (Dolby AC3, 6 ch)
    Subtitles:
    Russian
    English
    Russian
    * Menus Information *
    VIDEO_TS Menu
    Video:
    NTSC 16:9 (720x480) VBR
    Auto Letterboxed
    Audio:
    Not specified (Dolby AC3, 6 ch)
    Russian Language Unit :
    Title Menu
    VTS_01 Menu
    Video:
    NTSC 16:9 (720x480) VBR
    Auto Letterboxed
    Audio:
    Not specified (Dolby AC3, 6 ch)
    Russian Language Unit :
    Root Menu
    Audio Menu
    Chapter (PTT) Menu
    Код:
    Общее
    Полное имя : F:ВидеоThe Revenant (2015) DVD9 [BD-DVD]VIDEO_TSVTS_01_1.VOB
    Формат : MPEG-PS
    Размер файла : 1024 Мбайт
    Продолжительность : 17 м.
    Режим общего битрейта : Переменный
    Общий поток : 8092 Кбит/сек
    Видео
    Идентификатор : 224 (0xE0)
    Формат : MPEG Video
    Версия формата : Version 2
    Профиль формата : Main@Main
    Параметр BVOP формата : Да
    Параметр матрицы формата : Выборочная
    Параметр GOP формата : Variable
    Продолжительность : 17 м.
    Вид битрейта : Переменный
    Битрейт : 6587 Кбит/сек
    Максимальный битрейт : 8000 Кбит/сек
    Ширина : 720 пикселей
    Высота : 480 пикселей
    Соотношение сторон : 16:9
    Частота кадров : 23, 976 (24000/1001) кадра/сек
    Цветовое пространство : YUV
    Субдискретизация насыщенности : 4:2:0
    Битовая глубина : 8 бит
    Тип развёртки : Прогрессивная
    Порядок развёртки : 2:3 Pulldown
    Метод сжатия : С потерями
    Бит/(Пиксели*Кадры) : 0.795
    Временной код первого кадра : 00:00:00:00
    Оригинал временного кода : Group of pictures t_head
    Размер потока : 834 Мбайт (81%)
    Аудио #1
    Идентификатор : 189 (0xBD)-128 (0x80)
    Формат : AC-3
    Формат/Информация : Audio Coding 3
    Расширение режима : CM (complete main)
    Параметр Endianness формата : Big
    Режим смешивания : DVD-Video
    Продолжительность : 17 м.
    Вид битрейта : Постоянный
    Битрейт : 448 Кбит/сек
    Каналы : 6 каналов
    Расположение каналов : Front: L C R, Side: L R, LFE
    Частота : 48, 0 КГц
    Частота кадров : 31, 250 кадров/сек (1536 spf)
    Метод сжатия : С потерями
    Размер потока : 56, 7 Мбайт (6%)
    Аудио #2
    Идентификатор : 189 (0xBD)-129 (0x81)
    Формат : AC-3
    Формат/Информация : Audio Coding 3
    Расширение режима : CM (complete main)
    Параметр Endianness формата : Big
    Режим смешивания : DVD-Video
    Продолжительность : 17 м.
    Вид битрейта : Постоянный
    Битрейт : 448 Кбит/сек
    Каналы : 6 каналов
    Расположение каналов : Front: L C R, Side: L R, LFE
    Частота : 48, 0 КГц
    Частота кадров : 31, 250 кадров/сек (1536 spf)
    Метод сжатия : С потерями
    Размер потока : 56, 7 Мбайт (6%)
    Аудио #3
    Идентификатор : 189 (0xBD)-130 (0x82)
    Формат : AC-3
    Формат/Информация : Audio Coding 3
    Расширение режима : CM (complete main)
    Параметр Endianness формата : Big
    Режим смешивания : DVD-Video
    Продолжительность : 17 м.
    Вид битрейта : Постоянный
    Битрейт : 448 Кбит/сек
    Каналы : 6 каналов
    Расположение каналов : Front: L C R, Side: L R, LFE
    Частота : 48, 0 КГц
    Частота кадров : 31, 250 кадров/сек (1536 spf)
    Метод сжатия : С потерями
    Размер потока : 56, 7 Мбайт (6%)
    Текст #1
    Идентификатор : 189 (0xBD)-32 (0x20)
    Формат : RLE
    Формат/Информация : Run-length encoding
    Режим смешивания : DVD-Video
    Текст #2
    Идентификатор : 189 (0xBD)-33 (0x21)
    Формат : RLE
    Формат/Информация : Run-length encoding
    Режим смешивания : DVD-Video
    Меню


    Скриншоты для ознакомления




    Онлайн видео Выживший



    Выживший/The Revenant (2015) DVD9 [BD -> DVD]
    загрузка...
    Рейтинг →
     (голосов: 1, оценка 4/5, голосовать можно 1 раз )

    Другие торренты по теме:

  • Выживший / The Revenant (2015) WEBRip [H.264 / 1080p] [Трейлер] [EN] скачать через торрент бесплатно
  • Выживший / The Revenant (2015) WEBRip [H.264 / 1080p] [Трейлер] скачать через торрент бесплатно
  • Выживший / The Revenant (2015) DCPRip [2K] [Hi10P, Hi444PP] [Трейлер] скачать через торрент бесплатно
  • Выживший / The Revenant (2015) DVDScr [H.264] скачать через торрент бесплатно
  • Выживший / The Revenant (2015) DVDScr скачать через торрент бесплатно
  • Выживший / The Revenant (2015) DVDScr [EN] скачать через торрент бесплатно
  • Выживший / The Revenant (2015) DVDScr [H.264] скачать через торрент бесплатно
  • Выживший / The Revenant (2015) WEBRip [H.264 / 720p-LQ]


    • Комментарии (0):

      Информация

      Информация

        Посетители, находящиеся в группе Гости, не могут оставлять комментарии в данной новости.

        ↓ Меню




        ↓ Опрос

        Вы добавили сайт в закладки?
        Да
        Нет


        Top 10 за месяц (Фильмы)