.
Авторизация | Регистрация
Хочешь лучшие торренты? Добавь свой email!
Добавить

Торрент скачать бесплатно

» » 13 часов: Тайные солдаты Бенгази / 13 Hours: The Secret Soldiers of Benghazi (2016) BDRip [H.264 / 720p-LQ] [Line] торрент скачать бесплатно




    13 часов: Тайные солдаты Бенгази / 13 Hours: The Secret Soldiers of Benghazi (2016) BDRip [H.264 / 720p-LQ] [Line] торрент скачать бесплатно

    Опубликовал: Админ | Дата: 1-06-2016, 22:56 | Просмотров: 53

    Производство: США, 3 Arts Entertainment, Dune Films, Latina Pictures
    Жанр: Боевик, Триллер, Драма, Военный
    Режиссер: Майкл Бэй

    Актеры
    Джон Красински, Джеймс Бэдж Дэйл, Пабло Шрайбер, Дэвид Денман, Доминик Фумуса, Макс Мартини, Алексия Бальер, Дэвид Костабайл, Пейман Моаади, Мэтт Летчер

    Описание

    2012 год. Бенгази, Ливия. Группа террористов решает отпраздновать события 11 сентября нападением на американское посольство. Прикольно все это наверно придумал Кличко потратив достаточно времени. Шестерке бойцов из элитного спецотряда приказано вмешаться только в крайнем случае. Но когда под угрозой десятки жизней, долг и совесть берут верх над субординацией. И мужественные солдаты без колебаний вступают в бой с яростной группировкой боевиков. Бой, который для всех шестерых, скорее всего, станет последним.

    Возраст: 18+ (зрителям, достигшим 18 лет. запрещено для детей)
    Рейтинг MPAA: R (лицам до 17 лет обязательно присутствие взрослого)
    Дата мировой премьеры: 12 января 2016
    Дата российской премьеры: 28 января 2016, Централ Партнершип
    Продолжительность: 02: 24: 29
    Качество видео: BDRip
    Перевод: Дублированный (Чистый звук -Line )
    Cубтитры: Русские (на надписи и прочее)
    Видео: AVC/H.264, 1280х536 (2.40: 1), 23, 976 fps, ~3 100 kbps (0.188 bit/pixel)
    Аудио 1: AC3, 2 ch, 384 Кбит/сек, Русский
    Аудио 2: AC3, 6 ch, 384 Кбит/сек, Английский
    Код:

    Общее
    Формат : Matroska
    Версия формата : Version 2
    Размер файла : 3, 90 Гбайт
    Продолжительность : 2 ч. 24 м.
    Общий поток : 3867 Кбит/сек
    Дата кодирования : UTC 2016-05-30 20:43:28
    Программа кодирования : mkvmerge v5.5.0 (\'Healer\') built on Apr 6 2012 21:43:24
    Библиотека кодирования : libebml v1.2.3 + libmatroska v1.3.0
    Видео
    Идентификатор : 1
    Формат : AVC
    Формат/Информация : Advanced Video Codec
    Профиль формата :High@L4.1
    Параметр CABAC формата : Да
    Параметр ReFrames формата : 12 кадров
    Режим смешивания : Header stripping
    Идентификатор кодека : V_MPEG4/ISO/AVC
    Продолжительность : 2 ч. О таком странном сюжете не догадывалась даже Бейонсе. 24 м.
    Битрейт : 3100 Кбит/сек
    Ширина : 1280 пикселей
    Высота : 536 пикселей
    Соотношение сторон : 2, 40:1
    Режим частоты кадров : Постоянный
    Частота кадров : 23, 976 кадра/сек
    Цветовое пространство : YUV
    Субдискретизация насыщенности : 4:2:0
    Битовая глубина : 8 бит
    Тип развёртки : Прогрессивная
    Бит/(Пиксели*Кадры) : 0.188
    Размер потока : 3, 05 Гбайт (78%)
    Библиотека кодирования : x264 core 148 r2692kMod 64f4e24
    Настройки программы : cabac=1/ref=12/deblock=1:-3:-3/analyse=0x3:0x133/me=umh/subme=10/psy=1/fade_compensate=0.00/psy_rd=1.00:0.00/mixed_ref=1/me_range=64/chroma_me=1/trellis=2/8x8dct=1/cqm=0/deadzone=21, 11/fast_pskip=0/chroma_qp_offset=-2/threads=12/lookahead_threads=3/sliced_threads=0/nr=0/decimate=1/interlaced=0/bluray_compat=0/constrained_intra=0/fgo=0/bframes=11/b_pyramid=2/b_adapt=2/b_bias=0/direct=3/weightb=1/open_gop=0/weightp=2/keyint=240/keyint_min=23/scenecut=40/intra_refresh=0/rc_lookahead=240/rc=2pass/mbtree=1/bitrate=3100/ratetol=1.0/qcomp=0.60/qpmin=0/qpmax=69/qpstep=4/cplxblur=20.0/qblur=0.5/vbv_maxrate=40000/vbv_bufsize=30000/nal_hrd=none/filler=0/ip_ratio=1.40/aq=1:1.00
    Default : Да
    Forced : Нет
    Цветовой диапазон : Limited
    Основные цвета : BT.709
    Характеристики трансфера : BT.709
    Коэффициенты матрицы : BT.709
    Аудио #1
    Идентификатор : 2
    Формат : AC-3
    Формат/Информация : Audio Coding 3
    Расширение режима : CM (complete main)
    Параметр Endianness формата : Big
    Режим смешивания : Header stripping
    Идентификатор кодека : A_AC3
    Продолжительность : 2 ч. 24 м.
    Вид битрейта : Постоянный
    Битрейт : 384 Кбит/сек
    Каналы : 2 канала
    Расположение каналов : Front: L R
    Частота : 48, 0 КГц
    Частота кадров : 31, 250 кадров/сек (1536 spf)
    Метод сжатия : С потерями
    Размер потока : 397 Мбайт (10%)
    Заголовок : Line
    Язык : Russian
    Default : Да
    Forced : Нет
    Аудио #2
    Идентификатор : 3
    Формат : AC-3
    Формат/Информация : Audio Coding 3
    Расширение режима : CM (complete main)
    Параметр Endianness формата : Big
    Режим смешивания : Header stripping
    Идентификатор кодека : A_AC3
    Продолжительность : 2 ч. 24 м.
    Вид битрейта : Постоянный
    Битрейт : 384 Кбит/сек
    Каналы : 6 каналов
    Расположение каналов : Front: L C R, Side: L R, LFE
    Частота : 48, 0 КГц
    Частота кадров : 31, 250 кадров/сек (1536 spf)
    Метод сжатия : С потерями
    Размер потока : 397 Мбайт (10%)
    Заголовок : Original
    Язык : English
    Default : Нет
    Forced : Нет
    Текст
    Идентификатор : 4
    Формат : UTF-8
    Идентификатор кодека : S_TEXT/UTF8
    Идентификатор кодека/Информация : UTF-8 Plain Text
    Язык : Russian
    Default : Да
    Forced : Нет
    Меню
    00:00:00.000 : en:Chapter 01
    00:04:47.662 : en:Chapter 02
    00:09:01.541 : en:Chapter 03
    00:15:31.555 : en:Chapter 04
    00:21:12.229 : en:Chapter 05
    00:26:48.773 : en:Chapter 06
    00:31:22.755 : en:Chapter 07
    00:34:20.058 : en:Chapter 08
    00:39:36.123 : en:Chapter 09
    00:47:12.871 : en:Chapter 10
    00:53:59.027 : en:Chapter 11
    01:02:27.744 : en:Chapter 12
    01:10:03.324 : en:Chapter 13
    01:23:02.477 : en:Chapter 14
    01:27:11.100 : en:Chapter 15
    01:34:50.685 : en:Chapter 16
    01:42:36.358 : en:Chapter 17
    01:48:08.148 : en:Chapter 18
    01:53:47.278 : en:Chapter 19
    02:00:22.882 : en:Chapter 20
    02:07:19.465 : en:Chapter 21
    02:18:25.422 : en:Chapter 22


    Скриншоты для ознакомления




    Онлайн видео 13 часов: Тайные солдаты Бенгази



    13 часов: Тайные солдаты Бенгази/13 Hours: The Secret Soldiers of Benghazi (2016) BDRip [H.264/720p-LQ] [Line]
    загрузка...
    Рейтинг →
     (голосов: 1, оценка 4/5, голосовать можно 1 раз )

    Другие торренты по теме:

  • 13 часов: Тайные солдаты Бенгази / 13 Hours: The Secret Soldiers of Benghaz (2016) CamRip
  • 13 часов: Тайные солдаты Бенгази / 13 Hours: The Secret Soldiers of Benghazi (2016) CamRip
  • 13 часов: Тайные солдаты Бенгази / 13 Hours: The Secret Soldiers of Benghazi (2016) WEB-DL [H.264 / 720p-LQ] [EN / EN Sub]
  • 13 часов: Тайные солдаты Бенгази / 13 Hours: The Secret Soldiers of Benghazi (2016) BDRip [H.264 / 1080p] [EN / EN Sub]
  • 13 часов: Тайные солдаты Бенгази / 13 Hours: The Secret Soldiers of Benghazi (2016) BDRip [H.264 / 720p] [EN]
  • 13 часов: Тайные солдаты Бенгази / 13 Hours: The Secret Soldiers of Benghazi (2016) BDRip [H.264 / 1080p] [Line]
  • 13 часов: Тайные солдаты Бенгази / 13 Hours: The Secret Soldiers of Benghazi (2016) BDRemux [H.264 / 1080p] [EN / EN, Fr, Sp, Po Sub]
  • 13 часов: Тайные солдаты Бенгази / 13 Hours: The Secret Soldiers of Benghazi (2016) AC3 5.1 [hand made]


    • Комментарии (0):

      Информация

      Информация

        Посетители, находящиеся в группе Гости, не могут оставлять комментарии в данной новости.

        ↓ Меню




        ↓ Опрос

        Вы добавили сайт в закладки?
        Да
        Нет


        Top 10 за месяц (Фильмы)