.
Авторизация | Регистрация
Хочешь лучшие торренты? Добавь свой email!
Добавить

Торрент скачать бесплатно

» » Родословная / Bloodline (2016) WEBRip (сезон 2, серии 1-5 из 13) NewStudio (обновляемая) торрент скачать бесплатно



    Родословная / Bloodline (2016) WEBRip (сезон 2, серии 1-5 из 13) NewStudio (обновляемая) торрент скачать бесплатно

    Опубликовал: Админ | Дата: 31-05-2016, 04:00 | Просмотров: 34

    Производство: США/KZK Productions, Sony Pictures Television
    Жанр: триллер, драма
    Режиссер: Эдвард Бьянчи, Йохан Ренк, Дэниэл Эттиэс

    Актеры
    Кайл Чандлер, Бен Мендельсон, Линда Карделлини, Норберт Лео Батц, Джасинда Бэррет, Джейми МакШейн, Энрике Мурсиан, Сисси Спейсек, Тейлор Рувьер, Оуэн Тиг и др.

    Описание фильма

    История о взрослых братьях и сестрах, чьи секреты всплывают наружу, когда их брат, являющийся позором их семьи, возвращается домой.

    Продолжительность: ~01: 00: 00 серия
    Качество видео: WEBRip
    Перевод: Многоголосый закадровый, профессиональный -NewStudio
    Автор перевода: Александра Цернант, MartinaG
    Внимание! Присутствует ненормативная лексика.
    Видео: XviD, 720x400 (16: 9), ~1323 kb/s
    Аудио Rus: MPEG Layer 3, 48, 0 kHz, 2 ch, 128 kb/s — многоголосый закадровый
    Аудио Eng: MPEG Layer 3, 48, 0 kHz, 2 ch, 128 kb/s — оригинал
    Код:

    Общее
    Полное имя : D:Родословная (сезон любимого сериала 2) Bloodline (2016) WEBRip - NewStudioBloodline.S02E01.WEBRip.Rus.Eng.DV.NewStudio.avi
    Формат : AVI
    Формат/Информация : Audio Video Interleave
    Размер файла : 683 Мбайт
    Продолжительность : 59 м.
    Общий поток : 1593 Кбит/сек
    Название фильма : Bloodline.S02E01.WEBRip.Rus.Eng.DV.NewStudio/NNM-Club
    Программа кодирования : VirtualDubModRus 1.5.10.2 (build 2542/release)
    Библиотека кодирования : VirtualDubMod build 2542/release
    Видео
    Идентификатор : 0
    Формат : MPEG-4 Visual
    Профиль формата : Advanced Simple@L5
    Параметр BVOP формата : 2
    Параметр QPel формата : Нет
    Параметр GMC формата : Без точки перехода
    Параметр матрицы формата : Default (MPEG)
    Идентификатор кодека : XVID
    Идентификатор кодека/Подсказка : XviD
    Продолжительность : 59 м.
    Битрейт : 1323 Кбит/сек
    Ширина : 720 пикселей
    Высота : 400 пикселей
    Соотношение сторон : 16:9
    Частота кадров : 23, 976 (23976/1000) кадра/сек
    Цветовое пространство : YUV
    Субдискретизация насыщенности : 4:2:0
    Битовая глубина : 8 бит
    Тип развёртки : Прогрессивная
    Метод сжатия : С потерями
    Бит/(Пиксели*Кадры) : 0.192
    Размер потока : 567 Мбайт (83%)
    Библиотека кодирования : XviD 73
    Аудио #1
    Идентификатор : 1
    Формат : MPEG Audio
    Версия формата : Version 1
    Профиль формата : Layer 3
    Режим : Joint stereo
    Расширение режима : MS Stereo
    Идентификатор кодека : 55
    Идентификатор кодека/Подсказка : MP3
    Продолжительность : 59 м.
    Вид битрейта : Постоянный
    Битрейт : 128 Кбит/сек
    Каналы : 2 канала
    Частота : 48, 0 КГц
    Метод сжатия : С потерями
    Размер потока : 54, 9 Мбайт (8%)
    Выравнивание : Соединение по промежуткам
    Продолжительность промежутка : 42 мс. (1, 00 видеокадр)
    Время предзагрузки промежутка : 504 мс.
    Аудио #2
    Идентификатор : 2
    Формат : MPEG Audio
    Версия формата : Version 1
    Профиль формата : Layer 3
    Режим : Joint stereo
    Расширение режима : MS Stereo
    Идентификатор кодека : 55
    Идентификатор кодека/Подсказка : MP3
    Продолжительность : 59 м.
    Вид битрейта : Постоянный
    Битрейт : 128 Кбит/сек
    Каналы : 2 канала
    Частота : 48, 0 КГц
    Метод сжатия : С потерями
    Размер потока : 54, 9 Мбайт (8%)
    Выравнивание : Соединение по промежуткам
    Продолжительность промежутка : 42 мс. (1, 00 видеокадр)
    Время предзагрузки промежутка : 504 мс.
    Библиотека кодирования : LAME3.99.5


    Скриншоты для ознакомления




    Онлайн видео Родословная


    Прямая ссылка скачивания через uTorrent


    Родословная/Bloodline (2016) WEBRip (сезон 2, серии 1-5 из 13) NewStudio (обновляемая)
    загрузка...
    Рейтинг →
     (голосов: 1, оценка 5/5, голосовать можно 1 раз )

    Другие торренты по теме:

  • Родословная / Bloodline (2015) WEBRip (сезон 1, серии 1-2 из 13) AlexFilm (обновляемая) скачать через торрент бесплатно
  • Родословная / Bloodline (2015) WEBRip (сезон 1, серии 1 из 13) NewStudio (обновляемая) скачать через торрент бесплатно
  • Родословная / Bloodline (2015) WEBRip (сезон 1, серии 1 из 13) BaibaKo (обновляемая) скачать через торрент бесплатно
  • Родословная / Bloodline (2015) WEBRip [H.264 / 720p-LQ] (Сезон 1, серии 1-2 из 13) (AlexFilm) (обновляемая) скачать через торрент бесплатно
  • Родословная / Bloodline (2015) WEBRip [H.264 / 720p-LQ] (Сезон 1, серии 1-2 из 13) (BaibaKo) (обновляемая) скачать через торрент бесплатно
  • Родословная / Bloodline (2015) WEBRip [H.264 / 720p-LQ] (Сезон 1, серия 1 из 13) (NewStudio) (обновляемая) скачать через торрент бесплатно
  • Родословная / Bloodline (2016) WEBRip [H.264 / 720p-LQ] (Сезон 2, серии 1-10 из 13) ColdFilm (обновляемая)
  • Родословная / Bloodline (2016) WEBRip [H.264 / 720p] (Сезон 2, серии 1-10 из 10) BaibaKo


    • Комментарии (0):

      Информация

      Информация

        Посетители, находящиеся в группе Гости, не могут оставлять комментарии в данной новости.

        ↓ Меню




        ↓ Опрос

        Вы добавили сайт в закладки?
        Да
        Нет


        Top 10 за месяц (Фильмы)