.
Авторизация | Регистрация
Хочешь лучшие торренты? Добавь свой email!
Добавить

Торрент скачать бесплатно

» » Сосны / Уэйворд Пайнс / Уэйуорд Пайнс / Wayward Pines (2016) WEB-DL [H.264 / 720p-LQ] (сезон 2, серия 1 из 10) (LostFilm) (обновляемая) торрент скачать бесплатно



    Сосны / Уэйворд Пайнс / Уэйуорд Пайнс / Wayward Pines (2016) WEB-DL [H.264 / 720p-LQ] (сезон 2, серия 1 из 10) (LostFilm) (обновляемая) торрент скачать бесплатно

    Опубликовал: Админ | Дата: 30-05-2016, 04:00 | Просмотров: 30

    Производство: США, Blinding Edge Pictures, De Line Pictures, FX Productions, Storyland
    Жанр: фантастика, триллер, драма, детектив
    Режиссер: Дэвид Петрарка

    Актеры
    Джейсон Патрик, Нимрат Каур, Джош Хилман, Том Стивенс, Кейси Рол, Хоуп Дэвис, Джимон Хонсу, Карла Гуджино, Чарли Тахэн, Терренс Ховард и др.

    Описание

    Власть в Уэйворд Пайнс захватило Первое поколение — люди, которые родились здесь. Они правят железной рукой, и такая ситуация не устраивает Бена, сына Итана Бёрка. Бен вместе со своими соратниками организовывает движение сопротивления. Вместо того, чтобы противостоять абби, люди продолжают воевать друг с другом.

    Возраст: 18+ (зрителям, достигшим 18 лет)
    Релиз от: LostFilm
    Продолжительность: ~ 00: 44: 00 серия
    Качество видео: WEB-DL
    Перевод: Профессиональный многоголосый закадровый -LostFilm
    Вид субтитров: вшитые отключаемые
    Язык субтитров: английский
    Формат: MKV
    Видео: AVC/H.264, 1280x720 (16: 9), ~3943 Kbps
    Аудио Rus: AC3, 384 kbps, 2 ch, 48 kHz
    Аудио Eng: AC3, 384 kbps, 6 ch, 48 kHz
    Код:
    Общее
    Wayward Pines - Уэйуорд Пайнс. Сезон 2. LostFilm. 720pWayward.Pines.S02E01.720p.Rus.Eng.LostFilm.mkv
    Формат : Matroska
    Версия формата : Version 4/Version 2
    Размер файла : 1, 51 Гбайт
    Продолжительность : 44 м.
    Общий поток : 4806 Кбит/сек
    Название фильма : Wayward Pines s02e01 @ NNM-Club
    Дата кодирования : UTC 2016-05-29 01:51:32
    Программа кодирования : mkvmerge v6.9.1 (\'Blue Panther\') 64bit built on Apr 18 2014 18:23:38
    Библиотека кодирования : libebml v1.3.0 + libmatroska v1.4.1
    Видео
    Идентификатор : 1
    Формат : AVC
    Формат/Информация : Advanced Video Codec
    Профиль формата :High@L3.1
    Параметр CABAC формата : Нет
    Параметр ReFrames формата : 2 кадра
    Идентификатор кодека : V_MPEG4/ISO/AVC
    Продолжительность : 44 м.
    Битрейт : 3943 Кбит/сек
    Ширина : 1280 пикселей
    Высота : 720 пикселей
    Соотношение сторон : 16:9
    Режим частоты кадров : Постоянный
    Частота кадров : 23, 976 кадра/сек
    Цветовое пространство : YUV
    Субдискретизация насыщенности : 4:2:0
    Битовая глубина : 8 бит
    Тип развёртки : Прогрессивная
    Бит/(Пиксели*Кадры) : 0.178
    Размер потока : 1, 24 Гбайт (82%)
    Язык : English
    Default : Да
    Forced : Нет
    Цветовой диапазон : Limited
    Основные цвета : BT.709
    Характеристики трансфера : BT.709
    Коэффициенты матрицы : BT.709
    Аудио #1
    Идентификатор : 2
    Формат : AC-3
    Формат/Информация : Audio Coding 3
    Расширение режима : CM (complete main)
    Параметр Endianness формата : Big
    Идентификатор кодека : A_AC3
    Продолжительность : 44 м.
    Вид битрейта : Постоянный
    Битрейт : 384 Кбит/сек
    Каналы : 2 канала
    Расположение каналов : Front: L R
    Частота : 48, 0 КГц
    Метод сжатия : С потерями
    Размер потока : 123 Мбайт (8%)
    Язык : Russian
    Default : Да
    Forced : Нет
    Аудио #2
    Идентификатор : 3
    Формат : AC-3
    Формат/Информация : Audio Coding 3
    Расширение режима : CM (complete main)
    Параметр Endianness формата : Big
    Идентификатор кодека : A_AC3
    Продолжительность : 44 м.
    Вид битрейта : Постоянный
    Битрейт : 384 Кбит/сек
    Каналы : 6 каналов
    Расположение каналов : Front: L C R, Side: L R, LFE
    Частота : 48, 0 КГц
    Метод сжатия : С потерями
    Размер потока : 123 Мбайт (8%)
    Язык : English
    Default : Нет
    Forced : Нет
    Текст
    Идентификатор : 4
    Формат : UTF-8
    Идентификатор кодека : S_TEXT/UTF8
    Идентификатор кодека/Информация : UTF-8 Plain Text
    Язык : English
    Default : Нет
    Forced : Нет


    Скриншоты для ознакомления




    Онлайн видео Сосны


    Прямая ссылка скачивания через uTorrent


    Сосны/Уэйворд Пайнс/Уэйуорд Пайнс/Wayward Pines (2016) WEB-DL [H.264/720p-LQ] (сезон 2, серия 1 из 10) (LostFilm) (обновляемая)
    загрузка...
    Рейтинг →
     (голосов: 1, оценка 3/5, голосовать можно 1 раз )

    Другие торренты по теме:

  • Сосны / Уэйворд Пайнс / Уэйуорд Пайнс / Wayward Pines (2015) HDTVRip (сезон 1, серии 1 из 13) NewStudio (обновляемая) скачать через торрент бесплатно
  • Сосны / Уэйворд Пайнс / Уэйуорд Пайнс / Wayward Pines (2015) HDTVRip [H.264 / 720p-HQ] (Сезон 1, серии 1 из 13) (Кубик в Кубе) (обновляемая) скачать через торрент бесплатно
  • Сосны / Уэйворд Пайнс / Уэйуорд Пайнс / Wayward Pines (2015) HDTVRip [H.264 / 720p-LQ] (Сезон 1, серия 1 из 13) (NewStudio) (обновляемая) скачать через торрент бесплатно
  • Сосны / Уэйворд Пайнс / Уэйуорд Пайнс / Wayward Pines (2015) HDTVRip [H.264 / 720p-LQ] (Сезон 1, серия 1 из 13) (Fox) (обновляемая) скачать через торрент бесплатно
  • Сосны / Уэйворд Пайнс / Уэйуорд Пайнс / Wayward Pines (2015) WEB-DLRip (сезон 1, серии 1 из 13) LostFilm (обновляемая) скачать через торрент бесплатно
  • Сосны / Уэйворд Пайнс / Уэйуорд Пайнс / Wayward Pines (2015) WEBDL [H.264 / 1080p-LQ] (сезон 1, серии 1 из 13) (NewStudio) (обновляемая) скачать через торрент бесплатно
  • Сосны / Уэйворд Пайнс / Уэйуорд Пайнс / Wayward Pines (2015) WEB-DL [H.264 / 1080p-LQ] (сезон 1, серии 1 из 13) (LostFilm, NewStudio, AlexFilm, BaibaKo) (обновляемая) скачать через торрент бесплатно
  • Сосны / Уэйворд Пайнс / Уэйуорд Пайнс / Wayward Pines (2015) HDTVRip [H.264 / 1080p-LQ] (сезон 1, серии 1-2 из 13) (LostFilm) (обновляемая) скачать через торрент бесплатно


    • Комментарии (0):

      Информация

      Информация

        Посетители, находящиеся в группе Гости, не могут оставлять комментарии в данной новости.

        ↓ Меню




        ↓ Опрос

        Вы добавили сайт в закладки?
        Да
        Нет


        Top 10 за месяц (Фильмы)