.
Авторизация | Регистрация
Хочешь лучшие торренты? Добавь свой email!
Добавить

Торрент скачать бесплатно

» » Мировой парень (1971) HDTVRip [H.264 / 720p-LQ] торрент скачать бесплатно



    Мировой парень (1971) HDTVRip [H.264 / 720p-LQ] торрент скачать бесплатно

    Опубликовал: Админ | Дата: 30-05-2016, 04:00 | Просмотров: 42

    Производство: СССР, Беларусьфильм
    Жанр: Киноповесть
    Режиссер: Юрий Дубровин

    Актеры
    Николай Олялин, Любовь Румянцева, Янис Грантиньш, Харийс Лиепиньш, Рейн Арен, Гурген Тонунц, Валентина Сперантова, Мухтар Маниев, Владимир Кулешов, Николай Ерёменко (ст.), Александр Смирнов, Самир Шахин, Александр Федорович...

    Описание

    Советскому инженеру Виктору Логинову, приехавшему в одну из стран Востока в качестве технического представителя Минского автозавода, из-за болезни профессионального гонщика пришлось принять участие в международном авторалли. Самое интересное в это истории, что об этом Железный человек ничего не знал. Среди опытных асов из других стран Виктор был новичком. Многие представители зарубежных фирм заинтересованы в том, чтобы он проиграл в труднейшей борьбе. Это дало бы повод закрыть новой советской машине путь на мировой рынок.

    Возраст: 6+ (зрителям, достигшим 6 лет)
    Релиз от: fomatash
    Продолжительность: 01: 15: 01
    Качество видео: HDTVRip
    Видео: AVC/H.264, 1280x578, ~4765 kbps
    Аудио: MP2, 2 ch, 224 kbps, CBR
    Код:

    Общее
    Уникальный идентификатор : 221912482667633262641068082439665776142 (0xA6F2CA1F500004E394DE9EB649DC760E)
    Полное имя : D:-TTTМировой парень-720p-MG-NNM.mkv
    Формат : Matroska
    Версия формата : Version 4/Version 2
    Размер файла : 2, 62 Гбайт
    Продолжительность : 1 ч. 15 м.
    Общий поток : 4991 Кбит/сек
    Дата кодирования : UTC 2016-05-22 16:15:31
    Программа кодирования : mkvmerge v9.1.0 (\'Little Earthquakes\') 64bit
    Библиотека кодирования : libebml v1.3.3 + libmatroska v1.4.4
    Видео
    Идентификатор : 1
    Формат : AVC
    Формат/Информация : Advanced Video Codec
    Профиль формата :High@L4.1
    Параметр CABAC формата : Да
    Параметр ReFrames формата : 10 кадров
    Идентификатор кодека : V_MPEG4/ISO/AVC
    Продолжительность : 1 ч. 15 м.
    Битрейт : 4765 Кбит/сек
    Ширина : 1280 пикселей
    Высота : 578 пикселей
    Соотношение сторон : 2, 2:1
    Режим частоты кадров : Постоянный
    Частота кадров : 25, 000 кадров/сек
    Цветовое пространство : YUV
    Субдискретизация насыщенности : 4:2:0
    Битовая глубина : 8 бит
    Тип развёртки : Прогрессивная
    Бит/(Пиксели*Кадры) : 0.258
    Размер потока : 2, 50 Гбайт (95%)
    Заголовок : FomaTash for nnm-club.to
    Библиотека кодирования : x264 core 146 r2538 121396c
    Настройки программы : cabac=1/ref=10/deblock=1:-1:-1/analyse=0x3:0x133/me=umh/subme=9/psy=1/psy_rd=1.00:0.15/mixed_ref=1/me_range=32/chroma_me=1/trellis=2/8x8dct=1/cqm=0/deadzone=21, 11/fast_pskip=1/chroma_qp_offset=-3/threads=6/lookahead_threads=1/sliced_threads=0/nr=0/decimate=0/interlaced=0/bluray_compat=0/constrained_intra=0/bframes=8/b_pyramid=2/b_adapt=2/b_bias=0/direct=3/weightb=1/open_gop=0/weightp=2/keyint=240/keyint_min=23/scenecut=40/intra_refresh=0/rc_lookahead=40/rc=2pass/mbtree=0/bitrate=4765/ratetol=1.0/qcomp=0.60/qpmin=10/qpmax=51/qpstep=4/cplxblur=20.0/qblur=0.5/vbv_maxrate=50000/vbv_bufsize=62500/nal_hrd=none/filler=0/ip_ratio=1.40/pb_ratio=1.30/aq=1:1.00
    Язык : Russian
    Default : Да
    Forced : Нет
    Аудио
    Идентификатор : 2
    Формат : MPEG Audio
    Версия формата : Version 1
    Профиль формата : Layer 2
    Идентификатор кодека : A_MPEG/L2
    Идентификатор кодека/Подсказка : MP2
    Продолжительность : 1 ч. 15 м.
    Вид битрейта : Постоянный
    Битрейт : 224 Кбит/сек
    Каналы : 2 канала
    Частота : 48, 0 КГц
    Частота кадров : 41, 667 кадра/сек (1152 spf)
    Метод сжатия : С потерями
    Размер потока : 120 Мбайт (4%)
    Заголовок : MP2-2 канала
    Язык : Russian
    Default : Да
    Forced : Нет


    Скриншоты для ознакомления




    Онлайн видео Мировой парень (1971) HDTVRip [H.264


    Прямая ссылка скачивания через uTorrent


    Мировой парень (1971) HDTVRip [H.264/720p-LQ]
    загрузка...
    Рейтинг →
     (голосов: 1, оценка 3/5, голосовать можно 1 раз )

    Другие торренты по теме:

  • Мировой парень (1971) SATRip [H.264]
  • Мировой парень (1971) HDTV [H.264 / 1080i]


    • Комментарии (0):

      Информация

      Информация

        Посетители, находящиеся в группе Гости, не могут оставлять комментарии в данной новости.

        ↓ Меню




        ↓ Опрос

        Вы добавили сайт в закладки?
        Да
        Нет


        Top 10 за месяц (Фильмы)