.
Авторизация | Регистрация
Хочешь лучшие торренты? Добавь свой email!
Добавить

Торрент скачать бесплатно

» » Мафия: Игра на выживание (2015) BDRip 3D [H.264 / 1080p] [Вертикальная анаморфная стереопара] [hand made 16:9] торрент скачать бесплатно



    Мафия: Игра на выживание (2015) BDRip 3D [H.264 / 1080p] [Вертикальная анаморфная стереопара] [hand made 16:9] торрент скачать бесплатно

    Опубликовал: Админ | Дата: 27-05-2016, 04:00 | Просмотров: 48

    Производство: Россия/Enjoy Movies, Renovatio ent.
    Жанр: фантастика, боевик
    Режиссер: Сарик Андреасян
    Продюсер: Сарик Андреасян, Гевонд Андреасян, Владимир Поляков

    Актеры
    Виктор Вержбицкий, Вениамин Смехов, Юрий Чурсин, Вячеслав Разбегаев, Ольга Тумайкина, Андрей Чадов, Вадим Цаллати, Виолетта Гетманская, Наталья Рудова, Евгений Коряковский

    Описание

    Москва. Далекое будущее. Карточная игра МАФИЯ стала самым популярным в мире телешоу. Прикольно все это наверно придумал Папа Римский потратив достаточно времени. Одиннадцать человек соберутся за столом, чтобы выяснить — кто из них Мирный Житель, а кто безжалостная МАФИЯ. В ногах правды нет, сказал кто то из толпы, к чему не понятно. На глазах всего мира готовится коктейль из эмоций и чувств: хитрости, страха, лжи, ненависти, презрения, боли, гордости, страсти, любви и смерти. Ведь выигравший в схватке получит огромный денежный приз, а проигравший просто умрет…

    Возраст: 16+ (зрителям, достигшим 16 лет)
    Дата мировой премьеры: 1 января 2016
    Дата российской премьеры: 1 января 2016, Каропрокат 3D

    Дата выхода DVD/Blu-ray релиза: 19 февраля 2016, Мистерия Звука
    Продолжительность: 01: 31: 06
    Качество видео: BDRip 3D
    Перевод: Не требуется (Русский, лицензия)
    Вид субтитров: Отсутствуют
    Видео: AVC/H.264, 1920x1080, ~13, 2 Мбит/сек
    Аудио: AC3, 6 ch, 640, CBR
    Код:

    Общее
    Уникальный идентификатор : 213784940005917316016779321758831226310 (0xA0D57B54BB22F516BC10EFF1399E2DC6)
    Полное имя : J:tempSURVIVAL_GAME_3D.mkv
    Формат : Matroska
    Версия формата : Version 2
    Размер файла : 8, 96 Гбайт
    Продолжительность : 1 ч. 31 м.
    Общий поток : 14, 1 Мбит/сек
    Название фильма : SURVIVAL_GAME_3D_Crop_HO/U
    Дата кодирования : UTC 2016-05-25 22:12:02
    Программа кодирования : mkvmerge v5.6.0 (\'Kenya Kane\') built on Jun 29 2012 15:01:44
    Библиотека кодирования : libebml v1.2.3 + libmatroska v1.3.0
    Видео
    Идентификатор : 1
    Формат : AVC
    Формат/Информация : Advanced Video Codec
    Профиль формата :High@L4.1
    Параметр CABAC формата : Да
    Параметр ReFrames формата : 4 кадра
    Идентификатор кодека : V_MPEG4/ISO/AVC
    Продолжительность : 1 ч. 31 м.
    Битрейт : 13, 2 Мбит/сек
    Ширина : 1920 пикселей
    Высота : 1080 пикселей
    Соотношение сторон : 16:9
    Режим частоты кадров : Постоянный
    Частота кадров : 23, 976 кадра/сек
    Цветовое пространство : YUV
    Субдискретизация насыщенности : 4:2:0
    Битовая глубина : 8 бит
    Тип развёртки : Прогрессивная
    Бит/(Пиксели*Кадры) : 0.265
    Размер потока : 8, 37 Гбайт (93%)
    Заголовок : rip by I/N
    Библиотека кодирования : x264 core 128 r2216M 198a7ea
    Настройки программы : cabac=1/ref=4/deblock=1:-3:-3/analyse=0x3:0x133/me=umh/subme=10/psy=1/psy_rd=1.00:0.15/mixed_ref=1/me_range=64/chroma_me=1/trellis=2/8x8dct=1/cqm=0/deadzone=21, 11/fast_pskip=1/chroma_qp_offset=-3/threads=8/lookahead_threads=1/sliced_threads=0/nr=0/decimate=1/interlaced=0/bluray_compat=0/constrained_intra=0/bframes=12/b_pyramid=2/b_adapt=2/b_bias=0/direct=3/weightb=1/open_gop=0/weightp=2/keyint=230/keyint_min=23/scenecut=40/intra_refresh=0/rc_lookahead=40/rc=crf/mbtree=1/crf=15.5/qcomp=0.60/qpmin=10/qpmax=69/qpstep=4/vbv_maxrate=40000/vbv_bufsize=30000/crf_max=30.0/nal_hrd=none/ip_ratio=1.40/aq=1:0.90
    Default : Да
    Forced : Нет
    Аудио
    Идентификатор : 2
    Формат : AC-3
    Формат/Информация : Audio Coding 3
    Расширение режима : CM (complete main)
    Параметр Endianness формата : Big
    Идентификатор кодека : A_AC3
    Продолжительность : 1 ч. 31 м.
    Вид битрейта : Постоянный
    Битрейт : 640 Кбит/сек
    Каналы : 6 каналов
    Расположение каналов : Front: L C R, Side: L R, LFE
    Частота : 48, 0 КГц
    Битовая глубина : 16 бит
    Метод сжатия : С потерями
    Размер потока : 417 Мбайт (5%)
    Заголовок : Original
    Язык : Russian
    Default : Да
    Forced : Нет
    Меню
    00:00:00.000 : en:00:00:00.000
    00:08:51.573 : en:00:08:51.573
    00:18:26.022 : en:00:18:26.022
    00:27:38.991 : en:00:27:38.991
    00:37:32.125 : en:00:37:32.125
    00:48:15.309 : en:00:48:15.309
    00:59:19.139 : en:00:59:19.139
    01:11:41.547 : en:01:11:41.547
    01:26:38.777 : en:01:26:38.777


    Скриншоты для ознакомления




    Онлайн видео Мафия: Игра на выживание (2015) BDRip 3D [H.264


    Прямая ссылка скачивания через uTorrent


    Мафия: Игра на выживание (2015) BDRip 3D [H.264/1080p] [Вертикальная анаморфная стереопара] [hand made 16:9]
    загрузка...
    Рейтинг →
     (голосов: 1, оценка 4/5, голосовать можно 1 раз )

    Другие торренты по теме:

  • Мафия: Игра на выживание (2015) WEB-DL [H.264 / 720p-LQ]
  • Мафия: Игра на выживание (2015) WEB-DL [H.264 / 1080p-LQ]
  • Мафия: Игра на выживание (2015) WEB-DLRip
  • Мафия: Игра на выживание (2015) WEB-DLRip [H.264]
  • Мафия: Игра на выживание (2015) WEB-DL [720p] ATV
  • Мафия: Игра на выживание (2015) WEB-DL [H.264 / 720p-LQ]
  • Мафия: Игра на выживание (2015) WEB-DL [H.264 / 1080p-LQ]
  • Мафия: Игра на выживание (2015) WEB-DLRip [576p] iPad


    • Комментарии (0):

      Информация

      Информация

        Посетители, находящиеся в группе Гости, не могут оставлять комментарии в данной новости.

        ↓ Меню




        ↓ Опрос

        Вы добавили сайт в закладки?
        Да
        Нет


        Top 10 за месяц (Фильмы)