.
Авторизация | Регистрация
Хочешь лучшие торренты? Добавь свой email!
Добавить

Торрент скачать бесплатно

» » Проповедник / Пастырь / Preacher (2016) WEB-DL [H.264 / 1080p -LQ] (сезон 1, серии 1 из 10) LostFilm (обновляемая) торрент скачать бесплатно



    Проповедник / Пастырь / Preacher (2016) WEB-DL [H.264 / 1080p -LQ] (сезон 1, серии 1 из 10) LostFilm (обновляемая) торрент скачать бесплатно

    Опубликовал: Админ | Дата: 26-05-2016, 04:00 | Просмотров: 24

    Производство: США/AMC Studios
    Жанр: фэнтези, драма, детектив, приключения
    Режиссер: Эван Голдберг, Сет Роген, Майкл Словис

    Актеры
    Доминик Купер, Том Брук, У. Эрл Браун, Йен Коллетти, Джозеф Гилган, Люси Гриффитс, Джеки Эрл Хейли, Рут Негга, Дерек Уилсон, Анатол Юсеф и др.

    Описание

    Священник Джесси Кастер по воле случая стал носителем внутри своего естества странного существа по имени Генезис. Это дитя совокупления ангела и демона представляет собой одновременно чистый идеал и квинтэссенцию света, но также сгусток абсолютного зла. Генезис — единственное существо во Вселенной, которое может встать вровень с Богом, если того пожелает, а его носитель автоматически становится самым могущественным существом в материальном мире. И это проповедник Кастер.

    Дата мировой премьеры: 22 мая 2016
    Продолжительность: 1 серия 01: 04: 48
    Качество видео: WEB-DL 1080p
    Перевод: Многоголосый закадровый, профессиональный -LostFilm
    Вид субтитров: вшитые отключаемые
    Язык субтитров: английский
    Видео: H.264/AVC, 1916x1076 (16: 9), ~5000 kb/s
    Аудио Rus: AC-3, 48, 0 kHz, 2 ch, 384 kb/s — многоголосый закадровый
    Аудио Eng: AC-3, 48, 0 kHz, 6 ch, 384 kb/s — оригинал
    Код:

    Общее
    Уникальный идентификатор : 187085475069965243519386360128338636970 (0x8CBF5A137A7409C9A781E259379BB0AA)
    Полное имя : DПроповедник (сезон любимого сериала 1) Preacher (2016) WEB-DL 1080p - LostFilmPreacher.S01E01.WEB-DL1080p.Rus.Eng.DV.LostFilm.mkv
    Формат : Matroska
    Версия формата : Version 4/Version 2
    Размер файла : 2, 65 Гбайт
    Продолжительность : 1 ч. 4 м.
    Общий поток : 5861 Кбит/сек
    Название фильма : Preacher.S01E01.WEB-DL1080p.Rus.Eng.DV.LostFilm/NNM-Club
    Дата кодирования : UTC 2016-05-25 20:06:17
    Программа кодирования : mkvmerge v8.2.0 (\'World of Adventure\') 64bit
    Библиотека кодирования : libebml v1.3.1 + libmatroska v1.4.2
    Обложка : Yes
    Attachments : Cover
    Видео
    Идентификатор : 1
    Формат : AVC
    Формат/Информация : Advanced Video Codec
    Профиль формата : High@L4
    Параметр CABAC формата : Да
    Параметр ReFrames формата : 4 кадра
    Идентификатор кодека : V_MPEG4/ISO/AVC
    Продолжительность : 1 ч. 4 м.
    Битрейт : 5091 Кбит/сек
    Ширина : 1916 пикселей
    Высота : 1076 пикселей
    Соотношение сторон : 16:9
    Режим частоты кадров : Постоянный
    Частота кадров : 23, 976 кадра/сек
    Цветовое пространство : YUV
    Субдискретизация насыщенности : 4:2:0
    Битовая глубина : 8 бит
    Тип развёртки : Прогрессивная
    Бит/(Пиксели*Кадры) : 0.103
    Размер потока : 2, 30 Гбайт (87%)
    Язык : English
    Default : Да
    Forced : Нет
    Цветовой диапазон : Limited
    Основные цвета : BT.709
    Характеристики трансфера : BT.709
    Коэффициенты матрицы : BT.709
    Аудио #1
    Идентификатор : 2
    Формат : AC-3
    Формат/Информация : Audio Coding 3
    Расширение режима : CM (complete main)
    Параметр Endianness формата : Big
    Идентификатор кодека : A_AC3
    Продолжительность : 1 ч. 4 м.
    Вид битрейта : Постоянный
    Битрейт : 384 Кбит/сек
    Каналы : 2 канала
    Расположение каналов : Front: L R
    Частота : 48, 0 КГц
    Частота кадров : 31, 250 кадров/сек (1536 spf)
    Метод сжатия : С потерями
    Задержка видео : 1 с. 100 мс.
    Размер потока : 178 Мбайт (7%)
    Заголовок : LostFilm
    Язык : Russian
    Default : Да
    Forced : Нет
    Аудио #2
    Идентификатор : 3
    Формат : AC-3
    Формат/Информация : Audio Coding 3
    Расширение режима : CM (complete main)
    Параметр Endianness формата : Big
    Идентификатор кодека : A_AC3
    Продолжительность : 1 ч. 4 м.
    Вид битрейта : Постоянный
    Битрейт : 384 Кбит/сек
    Каналы : 6 каналов
    Расположение каналов : Front: L C R, Side: L R, LFE
    Частота : 48, 0 КГц
    Частота кадров : 31, 250 кадров/сек (1536 spf)
    Метод сжатия : С потерями
    Размер потока : 178 Мбайт (7%)
    Язык : English
    Default : Нет
    Forced : Нет
    Текст
    Идентификатор : 4
    Формат : UTF-8
    Идентификатор кодека : S_TEXT/UTF8
    Идентификатор кодека/Информация : UTF-8 Plain Text
    Продолжительность : 1 ч. 2 м.
    Битрейт : 47 бит/сек
    Count of elements : 769
    Размер потока : 21, 9 Кбайт (0%)
    Язык : English
    Default : Нет
    Forced : Нет


    Скриншоты для ознакомления




    Онлайн видео Проповедник


    Прямая ссылка скачивания через uTorrent


    Проповедник/Пастырь/Preacher (2016) WEB-DL [H.264/1080p -LQ] (сезон 1, серии 1 из 10) LostFilm (обновляемая)
    загрузка...
    Рейтинг →
     (голосов: 1, оценка 4/5, голосовать можно 1 раз )

    Другие торренты по теме:

  • Проповедник / Пастырь / Preacher (2016) WEB-DLRip (сезон 1, серии 1 из 10) LostFilm (обновляемая)
  • Проповедник / Пастырь / Preacher (2016) WEB-DLRip [H.264] (сезон 1, серия 1 из 10) Jaskier, NewStudio (обновляемая)
  • Проповедник / Пастырь / Preacher (2016) WEB-DLRip (сезон 1, серии 1 из 10) AlexFilm (обновляемая)
  • Проповедник / Пастырь / Preacher (2016) WEB-DLRip [H.264 / 720p-LQ] (сезон 1, серии 1 из 10) AlexFilm (обновляемая)
  • Проповедник / Пастырь / Preacher (2016) WEB-DL [H.264 / 720p-LQ] (сезон 1, серия 1 из 10) (NewStudio) (обновляемая)
  • Проповедник / Пастырь / Preacher (2016) WEB-DLRip (сезон 1, серии 1 из 10) NewStudio (обновляемая)
  • Проповедник / Пастырь / Preacher (2016) WEB-DL [H.264 / 720p-LQ] (сезон 1, серия 1 из 10) (LostFilm) (обновляемая)
  • Проповедник / Пастырь / Preacher (2016) WEB-DL [H.264 / 1080p-LQ] (сезон 1, серия 1 из 10) (NewStudio) (обновляемая)


    • Комментарии (0):

      Информация

      Информация

        Посетители, находящиеся в группе Гости, не могут оставлять комментарии в данной новости.

        ↓ Меню




        ↓ Опрос

        Вы добавили сайт в закладки?
        Да
        Нет


        Top 10 за месяц (Фильмы)