.
Авторизация | Регистрация
Хочешь лучшие торренты? Добавь свой email!
Добавить

Торрент скачать бесплатно

» » Золотой телёнок (1968) DVD5 торрент скачать бесплатно



    Золотой телёнок (1968) DVD5 торрент скачать бесплатно

    Опубликовал: Админ | Дата: 21-05-2016, 04:00 | Просмотров: 16

    Производство: СССР
    Жанр: Комедия, Приключения
    Режиссер: Михаил Швейцер

    Актеры
    Сергей Юрский, Леонид Куравлев, Зиновий Гердт, Евгений Евстигнеев, Светлана Старикова, Павел Винник, Игорь Ясулович, Раднэр Муратов, Тамара Семина, Николай Боярский, Константин Воинов, Дмитрий Орловский, Евгений Перов, Александра Денисова, Павел Павленко, Владимир Пицек, Николай Сергеев, Александр Январев, Игорь Кашинцев, Михаил Кокшенов, Евгений Гуров, Анатолий Обухов

    Описание

    Великий комбинатор Остап Бендер с детства мечтает о Рио-де-Жанейро. Ему известны множество способов сравнительно честного отъема денег у граждан. Но — где же в Советской России найти гражданина, обладающего хотя бы полумиллионом рублей?

    Возраст: 12+ (зрителям, достигшим 12 лет)
    Релиз от: smithland (remastered)
    Продолжительность: 02: 44: 01
    Качество видео: DVD5
    Видео: MPEG-2, 720x576@1024x576, ~3279 Kbps
    Аудио: AC3, 2 ch, 192 Kbps
    Код:

    General
    Complete name : E:Золотой Телёнок
    Format : MPEG-PS
    Overall bit rate mode : Variable
    Overall bit rate : 3 542 Kbps
    Video
    ID : 224 (0xE0)
    Format : MPEG Video
    Format version : Version 2
    Format profile : Main@Main
    Format settings, BVOP : Yes
    Format settings, Matrix : Default
    Format settings, GOP : M=3, N=12
    Bit rate mode : Variable
    Bit rate : 3 279 Kbps
    Maximum bit rate : 9 800 Kbps
    Width : 720 pixels
    Height : 576 pixels
    Display aspect ratio : 16:9
    Frame rate : 25.000 fps
    Standard : Component
    Color space : YUV
    Chroma subsampling : 4:2:0
    Bit depth : 8 bits
    Scan type : Progressive
    Compression mode : Lossy
    Bits/(Pixel*Frame) : 0.316
    Time code of first frame : 00:00:00:00
    Time code source : Group of pictures t_head
    GOP, Open/Closed : Closed
    Stream size : 948 MiB (93%)
    Color primaries : BT.601 PAL
    Transfer characteristics : BT.470 System B, BT.470 System G
    Matrix coefficients : BT.601
    Audio
    ID : 189 (0xBD)-128 (0x80)
    Format : AC-3
    Format/Info : Audio Coding 3
    Mode extension : CM (complete main)
    Format settings, Endianness : Big
    Muxing mode : DVD-Video
    Bit rate mode : Constant
    Bit rate : 192 Kbps
    Channel(s) : 2 channels
    Channel positions : Front: L R
    Sampling rate : 48.0 KHz
    Frame rate : 31.250 fps (1536 spf)
    Compression mode : Lossy
    Stream size : 55.5 MiB (5%)
    Menu


    Скриншоты для ознакомления




    Онлайн видео Побег за мечтой (2015) WEB-DL [H.264


    Прямая ссылка скачивания через uTorrent


    Золотой телёнок (1968) DVD5
    загрузка...
    Рейтинг →
     (голосов: 1, оценка 5/5, голосовать можно 1 раз )

    Другие торренты по теме:

  • Илья Ильф, Евгений Петров | Золотой телёнок. Впервые полностью (2000) [DJVU]


    • Комментарии (0):

      Информация

      Информация

        Посетители, находящиеся в группе Гости, не могут оставлять комментарии в данной новости.

        ↓ Меню




        ↓ Опрос

        Вы добавили сайт в закладки?
        Да
        Нет


        Top 10 за месяц (Фильмы)