.
Авторизация | Регистрация
Хочешь лучшие торренты? Добавь свой email!
Добавить

Торрент скачать бесплатно

» » Реальные пацаны (2016) DVB (сезон 9, серии 1-4 из 16) (обновляемая) торрент скачать бесплатно



    Реальные пацаны (2016) DVB (сезон 9, серии 1-4 из 16) (обновляемая) торрент скачать бесплатно

    Опубликовал: Админ | Дата: 19-05-2016, 04:00 | Просмотров: 24

    Производство: Россия/Good Story Media по заказу ТНТ
    Жанр: комедия
    Режиссер: Жанна Кадникова

    Актеры
    Николай Наумов, Зоя Бербер, Антон Богданов, Владимир Селиванов, Станислав Тляшев, Мария Скорницкая, Валентина Мазунина, Марина Федункив, Армен Бежанян, Игорь Ознобихин, Алексей Базанов, Анастасия Плоскова, Сергей Ершов, Татьяна Ронзина, Любовь Рудометова, Юлия Гришнина, Михаил Чуднов, Юрий Богомолов, Василий Бичев и др.

    Описание

    16 мая 2016 года навсегда войдет в историю телевидения. В этот день совместный эксперимент телеканала ТНТ и правоохранительных органов Пермского края успешно завершен: с Николая Наумова снимают условный срок и впервые за последние шесть лет он оказывается в условиях настоящей свободы. Камера выключена и больше не преследует Коляна по пятам. Ему больше не нужно регулярно отмечаться в полицейском участке, беспокоиться за свою репутацию перед телезрителями ТНТ, жить с оглядкой на условный срок и камеру. Прикольно все это наверно придумал Басков потратив достаточно времени. Теперь-то дела точно пойдут в гору. Вилами по воде писано, сказал кто то из толпы, к чему не понятно. Свобода Николая Наумова также принесла свободу всем остальным героям Реальных пацанов, которым больше не нужно сдерживать эмоции, включать самоцензуру и скрывать свое истинное лицо от вездесущей камеры. Камера, стоп! На этом история простого пермского пацана Коляна Наумова заканчивается, и начинается новая — история взрослого, ответственного, уверенного в себе человека, кандидата в депутаты Николая Александровича Наумова. И это не шутка. Камера, мотор! В новом сезон любимого сериалае Реальных пацанов бывший гопник Колян, благодаря финансовой помощи Сергея Ивановича Оборина, моральной поддержке Вована, Антохи и Леры, а также силами пиарщицы Олеси Геннадьевны будет строить политическую карьеру.

    Продолжительность: ~00: 25: 00 серия
    Качество видео: DVB
    Видео: MPEG-2, 720x576@768х576 (4: 3), ~3500 Kbps
    Аудио: MP2, 2 ch, 192 Kbps, CBR
    Код:
    Общее
    Полное имя : F:DOWNLOADSРеальные пацаны (9 сезон любимого сериала) 2016 DVBРеальные пацаны 9 - 01 серия.mpg
    Формат : MPEG-PS
    Размер файла : 624 Мбайт
    Продолжительность : 23 м.
    Режим общего битрейта : Переменный
    Общий поток : 3788 Кбит/сек
    Видео
    Идентификатор : 224 (0xE0)
    Формат : MPEG Video
    Версия формата : Version 2
    Профиль формата : Main@Main
    Параметр BVOP формата : Да
    Параметр матрицы формата : Выборочная
    Параметр GOP формата : Variable
    Продолжительность : 23 м.
    Вид битрейта : Переменный
    Битрейт : 3520 Кбит/сек
    Максимальный битрейт : 15, 0 Мбит/сек
    Ширина : 720 пикселей
    Высота : 576 пикселей
    Соотношение сторон : 4:3
    Частота кадров : 25, 000 кадров/сек
    Стандарт вещания : PAL
    Цветовое пространство : YUV
    Субдискретизация насыщенности : 4:2:0
    Битовая глубина : 8 бит
    Метод сжатия : С потерями
    Бит/(Пиксели*Кадры) : 0.340
    Временной код первого кадра : 00:00:00:00
    Оригинал временного кода : Group of pictures t_head
    GOP, открыто/закрыто : Открыто
    GOP, открыто/закрыто на первом кадре : Закрыто
    Размер потока : 580 Мбайт (93%)
    Аудио
    Идентификатор : 192 (0xC0)
    Формат : MPEG Audio
    Версия формата : Version 1
    Профиль формата : Layer 2
    Продолжительность : 23 м.
    Вид битрейта : Постоянный
    Битрейт : 192 Кбит/сек
    Каналы : 2 канала
    Частота : 48, 0 КГц
    Метод сжатия : С потерями
    Размер потока : 31, 6 Мбайт (5%)


    Скриншоты для ознакомления




    Онлайн видео Реальные пацаны (2016) DVB (сезон любимого сериала 9, серии 1


    Прямая ссылка скачивания через uTorrent


    Реальные пацаны (2016) DVB (сезон 9, серии 1-4 из 16) (обновляемая)
    загрузка...
    Рейтинг →
     (голосов: 1, оценка 4/5, голосовать можно 1 раз )

    Другие торренты по теме:

  • Реальные пацаны. Возвращение (2014) WEB-DLRip [H.264] (серии 1-16) (обновляемая)
  • Реальные пацаны. Возвращение (2014) WEB-DL [720p] (серии 1-16) (обновляемая)
  • Реальные пацаны. Возвращение (2014) WEB-DLRip (Серии 1-16) (Обновляемая)
  • Реальные пацаны. Возвращение (2014) SATRip (Серии 1-16) (Обновляемая)
  • Реальные пацаны. Возвращение (2014) WEB-DLRip [H.264 / 720p-LQ] (сезон 7, серии 1-16 из (123-138 из )) [обновляемая]
  • Реальные пацаны (2015) WEB-DLRip [H.264 / 720p-LQ] (сезон 8, серии 1-2 из 20) (обновляемая) скачать через торрент бесплатно
  • Реальные пацаны (2015) WEB-DLRip (сезон 8, серии 1-2 из 20) (обновляемая) скачать через торрент бесплатно
  • Реальные пацаны (2015) SATRip (сезон 8, серии 1-2 из 20) (обновляемая) скачать через торрент бесплатно


    • Комментарии (0):

      Информация

      Информация

        Посетители, находящиеся в группе Гости, не могут оставлять комментарии в данной новости.

        ↓ Меню




        ↓ Опрос

        Вы добавили сайт в закладки?
        Да
        Нет


        Top 10 за месяц (Фильмы)