.
Авторизация | Регистрация
Хочешь лучшие торренты? Добавь свой email!
Добавить

Торрент скачать бесплатно

» » Дети Дюны / Children Of Dune (2003) BDRip [H.265 / 1080p] (сезон 1, серии 1-3 из 3) торрент скачать бесплатно



    Дети Дюны / Children Of Dune (2003) BDRip [H.265 / 1080p] (сезон 1, серии 1-3 из 3) торрент скачать бесплатно

    Опубликовал: Админ | Дата: 17-05-2016, 04:00 | Просмотров: 18

    Производство: Германия, США/Blixa Film Produktion GmbH Co. KG, Hallmark Entertainment, New Amsterdam Entertainment Inc., TTP Film Distributions II LLC
    Жанр: Драма, Фантастика, Фэнтези
    Режиссер: Грег Яйтанс

    Актеры
    Алек Ньюман, Джули Кокс, Сьюзан Сарандон, Эдвард Аттертон, Иэн МакНис, Барбора Кодетова, Стивен Беркофф, Даниэла Амавиа, П.Х. Мориарти, Джеймс МакЭвой, Джессика Брукс, Элис Крайдж, Зденек Мариска

    Описание

    Прошло 12 лет с тех пор, как Пол Муад-Диб Атрейдес, житель пустыни, задумал подчинить себе Империю. За эти годы все известные планеты попали под власть Пола.
    Но барон Харконнен — старый враг Муад-Диба не оставляет надежд низвергнуть Атрейдесов. Теперь судьба и жизнь Империи зависят от детей Пола. Будущее Дюны в руках его сына, обладающего сверхъестественными способностями…

    Возраст: 12+ (зрителям, достигшим 12 лет)
    Релиз от: Absinthd
    Продолжительность: ~01: 27: 00 серия
    Качество видео: BDRip
    Перевод: Многоголосый закадровый, профессиональный
    Видео: HEVC/H.265, 1916x1080, ~4473 Kbps (1 серия), ~5536 Kbps (2 серия), ~5189 Kbps (3 серия)
    Аудио: AC3, 6 ch, 640 Kbps, CBR
    Код:

    [color=#BF0000]MI 1:[/color]
    Общее
    Уникальный идентификатор : 209767524688064380918702975462854371042 (0x9DCFC1769515733CBC5E0BFEF35826E2)
    Полное имя : E:VideoДети Дюныchofdune.s02.e01.mkv
    Формат : Matroska
    Версия формата : Version 4/Version 2
    Размер файла : 3, 13 Гбайт
    Продолжительность : 1 ч. 27 м.
    Общий поток : 5114 Кбит/сек
    Название фильма : Дети Дюны/Children Of Dune
    Дата кодирования : UTC 2016-04-08 10:12:48
    Программа кодирования : mkvmerge v9.0.1 (\'Obstacles\') 64bit
    Библиотека кодирования : libebml v1.3.3 + libmatroska v1.4.4
    Attachments : 1198cbc80fff88186696036005816468.png
    Видео
    Идентификатор : 1
    Формат : HEVC
    Формат/Информация : High Efficiency Video Coding
    Профиль формата : Main 10@L4@Main
    Идентификатор кодека : V_MPEGH/ISO/HEVC
    Продолжительность : 1 ч. 27 м.
    Битрейт : 4473 Кбит/сек
    Ширина : 1916 пикселей
    Высота : 1080 пикселей
    Соотношение сторон : 16:9
    Режим частоты кадров : Постоянный
    Частота кадров : 24, 000 кадра/сек
    Цветовое пространство : YUV
    Субдискретизация насыщенности : 4:2:0
    Битовая глубина : 10 бит
    Бит/(Пиксели*Кадры) : 0.090
    Размер потока : 2, 73 Гбайт (87%)
    Библиотека кодирования : x265 1.9+32-c2228fb8151d:[Windows][MSVC 1900][64 bit] 10bit
    Настройки программы : wpp/ctu=64/min-cu-size=8/max-tu-size=32/tu-intra-depth=2/tu-inter-depth=2/me=3/subme=3/merange=57/rect/amp/max-merge=3/temporal-mvp/early-skip/rdpenalty=0/no-tskip/no-tskip-fast/strong-intra-smoothing/no-lossless/no-cu-lossless/no-constrained-intra/no-fast-intra/open-gop/no-temporal-layers/interlace=0/keyint=250/min-keyint=24/scenecut=40/rc-lookahead=60/lookahead-slices=1/bframes=8/bframe-bias=0/b-adapt=2/ref=4/limit-refs=3/limit-modes/weightp/weightb/aq-mode=3/qg-size=16/aq-strength=1.00/cbqpoffs=0/crqpoffs=0/rd=6/psy-rd=1.00/rdoq-level=2/psy-rdoq=10.00/rd-refine/signhide/deblock=-2:-2/sao/no-sao-non-deblock/b-pyramid/cutree/no-intra-refresh/rc=crf/crf=23.0/qcomp=0.80/qpmin=0/qpmax=51/qpstep=4/ipratio=1.10/pbratio=1.10
    Default : Да
    Forced : Нет
    Аудио
    Идентификатор : 2
    Формат : AC-3
    Формат/Информация : Audio Coding 3
    Расширение режима : CM (complete main)
    Параметр Endianness формата : Big
    Идентификатор кодека : A_AC3
    Продолжительность : 1 ч. 27 м.
    Вид битрейта : Постоянный
    Битрейт : 640 Кбит/сек
    Каналы : 6 каналов
    Расположение каналов : Front: L C R, Side: L R, LFE
    Частота : 48, 0 КГц
    Частота кадров : 31, 250 кадров/сек (1536 spf)
    Метод сжатия : С потерями
    Размер потока : 400 Мбайт (12%)
    Заголовок : Перевод: Профессиональный (многоголосый закадровый)
    Язык : Russian
    Default : Да
    Forced : Нет
    Меню
    00:00:00.000 : en:Chapter 01
    00:08:28.916 : en:Chapter 02
    00:20:12.833 : en:Chapter 03
    00:28:33.000 : en:Chapter 04
    00:38:46.333 : en:Chapter 05
    00:48:59.708 : en:Chapter 06
    00:57:39.708 : en:Chapter 07
    01:09:28.875 : en:Chapter 08
    01:24:05.208 : en:Chapter 09
    XMP
    Xmp.video.FileName : E:VideoДети Дюныchofdune.s02.e01.mkv
    Xmp.video.FileSize : -895.914
    Xmp.video.MimeType : video/matroska
    Xmp.video.EBMLVersion : 1
    Xmp.video.EBMLReadVersion : 1
    Xmp.video.DocType : matroska
    Xmp.video.DocTypeVersion : 4
    Xmp.video.DocTypeReadVersion : 2
    Xmp.video.TimecodeScale : 0.001
    Xmp.video.MuxingApp : libebml v1.3.3 + libmatroska v1.4.4
    Xmp.video.WritingApp : mkvmerge v9.0.1 (\'Obstacles\') 64bit
    Xmp.video.Duration : 5249459
    Xmp.video.DateUTC : 481803168
    Xmp.video.Title : Дети Дюны/Children Of Dune
    Xmp.video.TotalStream : 26
    Xmp.video.TrackLacing : No
    Xmp.video.Codec : V_MPEGH/ISO/HEVC
    Xmp.video.FrameRate : 24
    Xmp.video.TrackLang : und
    Xmp.video.Width : 1916
    Xmp.video.Height : 1080
    Xmp.audio.Compressor : A_AC3
    Xmp.audio.DefaultDuration : 32000
    Xmp.audio.TrackLang : rus
    Xmp.video.TrackName : Перевод: ПрофессионаРьный (РјРЅРѕРіРѕРіРѕРосый закадровый)
    Xmp.audio.SampleRate : 48000
    Xmp.video.AttachFileName : 1198cbc80fff88186696036005816468.png
    Xmp.video.AttachFileMIME : image/png
    Xmp.video.AttachFileUID : -1998170294081433685
    Xmp.video.AttachFileDesc : Cover
    Xmp.video.AspectRatio : 16:9
    [color=#800000]MI 2:[/color]
    Общее
    Уникальный идентификатор : 177073466029901379124245594784946440785 (0x85371BEB3F5D8F6EBE9015ADF3BBCA51)
    Полное имя : E:VideoДети Дюныchofdune.s02.e02.mkv
    Формат : Matroska
    Версия формата : Version 4/Version 2
    Размер файла : 3, 75 Гбайт
    Продолжительность : 1 ч. 26 м.
    Общий поток : 6177 Кбит/сек
    Название фильма : Дети Дюны. Эпизод 2/Children Of Dune
    Дата кодирования : UTC 2016-04-08 10:25:01
    Программа кодирования : mkvmerge v9.0.1 (\'Obstacles\') 64bit
    Библиотека кодирования : libebml v1.3.3 + libmatroska v1.4.4
    Attachments : 1198cbc80fff88186696036005816468.png
    Видео
    Идентификатор : 1
    Формат : HEVC
    Формат/Информация : High Efficiency Video Coding
    Профиль формата : Main 10@L4@Main
    Идентификатор кодека : V_MPEGH/ISO/HEVC
    Продолжительность : 1 ч. Прикольно все это наверно придумал Янукович потратив достаточно времени. 26 м.
    Битрейт : 5536 Кбит/сек
    Ширина : 1920 пикселей
    Высота : 1080 пикселей
    Соотношение сторон : 16:9
    Режим частоты кадров : Постоянный
    Частота кадров : 24, 000 кадра/сек
    Цветовое пространство : YUV
    Субдискретизация насыщенности : 4:2:0
    Битовая глубина : 10 бит
    Бит/(Пиксели*Кадры) : 0.111
    Размер потока : 3, 36 Гбайт (90%)
    Библиотека кодирования : x265 1.9+32-c2228fb8151d:[Windows][MSVC 1900][64 bit] 10bit
    Настройки программы : wpp/ctu=64/min-cu-size=8/max-tu-size=32/tu-intra-depth=2/tu-inter-depth=2/me=3/subme=3/merange=57/rect/amp/max-merge=3/temporal-mvp/early-skip/rdpenalty=0/no-tskip/no-tskip-fast/strong-intra-smoothing/no-lossless/no-cu-lossless/no-constrained-intra/no-fast-intra/open-gop/no-temporal-layers/interlace=0/keyint=250/min-keyint=24/scenecut=40/rc-lookahead=60/lookahead-slices=1/bframes=8/bframe-bias=0/b-adapt=2/ref=4/limit-refs=3/limit-modes/weightp/weightb/aq-mode=3/qg-size=16/aq-strength=1.00/cbqpoffs=0/crqpoffs=0/rd=6/psy-rd=1.00/rdoq-level=2/psy-rdoq=10.00/rd-refine/signhide/deblock=-2:-2/sao/no-sao-non-deblock/b-pyramid/cutree/no-intra-refresh/rc=crf/crf=23.0/qcomp=0.80/qpmin=0/qpmax=51/qpstep=4/ipratio=1.10/pbratio=1.10
    Default : Да
    Forced : Нет
    Аудио
    Идентификатор : 2
    Формат : AC-3
    Формат/Информация : Audio Coding 3
    Расширение режима : CM (complete main)
    Параметр Endianness формата : Big
    Идентификатор кодека : A_AC3
    Продолжительность : 1 ч. Самое интересное в это истории, что об этом Янукович ничего не знал. 26 м.
    Вид битрейта : Постоянный
    Битрейт : 640 Кбит/сек
    Каналы : 6 каналов
    Расположение каналов : Front: L C R, Side: L R, LFE
    Частота : 48, 0 КГц
    Частота кадров : 31, 250 кадров/сек (1536 spf)
    Метод сжатия : С потерями
    Размер потока : 397 Мбайт (10%)
    Заголовок : Перевод: Профессиональный (многоголосый закадровый)
    Язык : Russian
    Default : Да
    Forced : Нет
    Меню
    00:00:00.000 : en:Chapter 01
    00:09:49.458 : en:Chapter 02
    00:22:12.125 : en:Chapter 03
    00:29:15.083 : en:Chapter 04
    00:40:38.416 : en:Chapter 05
    00:50:34.750 : en:Chapter 06
    00:59:02.250 : en:Chapter 07
    01:10:56.375 : en:Chapter 08
    01:21:22.125 : en:Chapter 09
    XMP
    Xmp.video.FileName : E:VideoДети Дюныchofdune.s02.e02.mkv
    Xmp.video.FileSize : -252.366
    Xmp.video.MimeType : video/matroska
    Xmp.video.EBMLVersion : 1
    Xmp.video.EBMLReadVersion : 1
    Xmp.video.DocType : matroska
    Xmp.video.DocTypeVersion : 4
    Xmp.video.DocTypeReadVersion : 2
    Xmp.video.TimecodeScale : 0.001
    Xmp.video.MuxingApp : libebml v1.3.3 + libmatroska v1.4.4
    Xmp.video.WritingApp : mkvmerge v9.0.1 (\'Obstacles\') 64bit
    Xmp.video.Duration : 5219625
    Xmp.video.DateUTC : 481803901
    Xmp.video.Title : Дети Дюны. Эпизод 2/Children Of Dune
    Xmp.video.TotalStream : 28
    Xmp.video.TrackLacing : No
    Xmp.video.Codec : V_MPEGH/ISO/HEVC
    Xmp.video.FrameRate : 24
    Xmp.video.TrackLang : und
    Xmp.video.Width : 1920
    Xmp.video.Height : 1080
    Xmp.audio.Compressor : A_AC3
    Xmp.audio.DefaultDuration : 32000
    Xmp.audio.TrackLang : rus
    Xmp.video.TrackName : Перевод: ПрофессионаРьный (РјРЅРѕРіРѕРіРѕРосый закадровый)
    Xmp.audio.SampleRate : 48000
    Xmp.video.AttachFileName : 1198cbc80fff88186696036005816468.png
    Xmp.video.AttachFileMIME : image/png
    Xmp.video.AttachFileUID : 3428159560567688582
    Xmp.video.AttachFileDesc : Cover
    Xmp.video.AspectRatio : 16:9
    [color=#BF0000]MI 3:[/color]
    Общее
    Уникальный идентификатор : 197079886104661680656404634864199803590 (0x94443495A76EF9EA845E71A69E9E22C6)
    Полное имя : E:VideoДети Дюныchofdune.s02.e03.mkv
    Формат : Matroska
    Версия формата : Version 4/Version 2
    Размер файла : 3, 56 Гбайт
    Продолжительность : 1 ч. 27 м.
    Общий поток : 5830 Кбит/сек
    Название фильма : Дети Дюны. Эпизод 3/Children Of Dune
    Дата кодирования : UTC 2016-04-08 10:39:23
    Программа кодирования : mkvmerge v9.0.1 (\'Obstacles\') 64bit
    Библиотека кодирования : libebml v1.3.3 + libmatroska v1.4.4
    Attachments : 1198cbc80fff88186696036005816468.png
    Видео
    Идентификатор : 1
    Формат : HEVC
    Формат/Информация : High Efficiency Video Coding
    Профиль формата : Main 10@L4@Main
    Идентификатор кодека : V_MPEGH/ISO/HEVC
    Продолжительность : 1 ч. 27 м.
    Битрейт : 5189 Кбит/сек
    Ширина : 1916 пикселей
    Высота : 1080 пикселей
    Соотношение сторон : 16:9
    Режим частоты кадров : Постоянный
    Частота кадров : 24, 000 кадра/сек
    Цветовое пространство : YUV
    Субдискретизация насыщенности : 4:2:0
    Битовая глубина : 10 бит
    Бит/(Пиксели*Кадры) : 0.104
    Размер потока : 3, 17 Гбайт (89%)
    Библиотека кодирования : x265 1.9+32-c2228fb8151d:[Windows][MSVC 1900][64 bit] 10bit
    Настройки программы : wpp/ctu=64/min-cu-size=8/max-tu-size=32/tu-intra-depth=2/tu-inter-depth=2/me=3/subme=3/merange=57/rect/amp/max-merge=3/temporal-mvp/early-skip/rdpenalty=0/no-tskip/no-tskip-fast/strong-intra-smoothing/no-lossless/no-cu-lossless/no-constrained-intra/no-fast-intra/open-gop/no-temporal-layers/interlace=0/keyint=250/min-keyint=24/scenecut=40/rc-lookahead=60/lookahead-slices=1/bframes=8/bframe-bias=0/b-adapt=2/ref=4/limit-refs=3/limit-modes/weightp/weightb/aq-mode=3/qg-size=16/aq-strength=1.00/cbqpoffs=0/crqpoffs=0/rd=6/psy-rd=1.00/rdoq-level=2/psy-rdoq=10.00/rd-refine/signhide/deblock=-2:-2/sao/no-sao-non-deblock/b-pyramid/cutree/no-intra-refresh/rc=crf/crf=23.0/qcomp=0.80/qpmin=0/qpmax=51/qpstep=4/ipratio=1.10/pbratio=1.10
    Default : Да
    Forced : Нет
    Аудио
    Идентификатор : 2
    Формат : AC-3
    Формат/Информация : Audio Coding 3
    Расширение режима : CM (complete main)
    Параметр Endianness формата : Big
    Идентификатор кодека : A_AC3
    Продолжительность : 1 ч. 27 м.
    Вид битрейта : Постоянный
    Битрейт : 640 Кбит/сек
    Каналы : 6 каналов
    Расположение каналов : Front: L C R, Side: L R, LFE
    Частота : 48, 0 КГц
    Частота кадров : 31, 250 кадров/сек (1536 spf)
    Метод сжатия : С потерями
    Размер потока : 400 Мбайт (11%)
    Заголовок : Перевод: Профессиональный (многоголосый закадровый)
    Язык : Russian
    Default : Да
    Forced : Нет
    Меню
    00:00:00.000 : en:Chapter 01
    00:09:37.291 : en:Chapter 02
    00:20:41.708 : en:Chapter 03
    00:31:45.958 : en:Chapter 04
    00:42:22.833 : en:Chapter 05
    00:53:38.708 : en:Chapter 06
    01:04:37.708 : en:Chapter 07
    01:14:21.250 : en:Chapter 08
    XMP
    Xmp.video.FileName : E:VideoДети Дюныchofdune.s02.e03.mkv
    Xmp.video.FileSize : -446.708
    Xmp.video.MimeType : video/matroska
    Xmp.video.EBMLVersion : 1
    Xmp.video.EBMLReadVersion : 1
    Xmp.video.DocType : matroska
    Xmp.video.DocTypeVersion : 4
    Xmp.video.DocTypeReadVersion : 2
    Xmp.video.TimecodeScale : 0.001
    Xmp.video.MuxingApp : libebml v1.3.3 + libmatroska v1.4.4
    Xmp.video.WritingApp : mkvmerge v9.0.1 (\'Obstacles\') 64bit
    Xmp.video.Duration : 5250917
    Xmp.video.DateUTC : 481804763
    Xmp.video.Title : Дети Дюны. Эпизод 3/Children Of Dune
    Xmp.video.TotalStream : 30
    Xmp.video.TrackLacing : No
    Xmp.video.Codec : V_MPEGH/ISO/HEVC
    Xmp.video.FrameRate : 24
    Xmp.video.TrackLang : und
    Xmp.video.Width : 1916
    Xmp.video.Height : 1080
    Xmp.audio.Compressor : A_AC3
    Xmp.audio.DefaultDuration : 32000
    Xmp.audio.TrackLang : rus
    Xmp.video.TrackName : Перевод: ПрофессионаРьный (РјРЅРѕРіРѕРіРѕРосый закадровый)
    Xmp.audio.SampleRate : 48000
    Xmp.video.AttachFileName : 1198cbc80fff88186696036005816468.png
    Xmp.video.AttachFileMIME : image/png
    Xmp.video.AttachFileUID : -49532901614022780
    Xmp.video.AttachFileDesc : Cover
    Xmp.video.AspectRatio : 16:9


    Скриншоты для ознакомления




    Онлайн видео Дети Дюны


    Прямая ссылка скачивания через uTorrent


    Дети Дюны/Children Of Dune (2003) BDRip [H.265/1080p] (сезон 1, серии 1-3 из 3)
    загрузка...
    Рейтинг →
     (голосов: 1, оценка 5/5, голосовать можно 1 раз )

    Другие торренты по теме:

  • Ookami Kodomo no Ame to Yuki / Wolf Children / Волчьи дети Амэ и Юки [2012, MV] BDRemux 1080p Raw+Rus
  • Планета обезьян. Куда исчезают умные дети (Планета мавп. Куди зникають розумні діти) (2014) [MP4|1280x720] <HDRip H.264> скачать через торрент бесплатно
  • Нил Гейман | Дети Ананси (2014) [MP3] скачать через торрент бесплатно
  • Мужчины, женщины и дети / Men, Women & Children (2014) WEB-DL [720p]
  • Мужчины, женщины и дети / Men, Women & Children (2014) WEB-DL [720p] ATV
  • Мужчины, женщины и дети / Men, Women & Children (2014) HDRip
  • Мужчины, женщины и дети / Men, Women & Children (2014) HDRip
  • Валерий Гусев | Серия: Дети Шерлока Холмса [45 книг] (2001-2012) [FB2]


    • Комментарии (0):

      Информация

      Информация

        Посетители, находящиеся в группе Гости, не могут оставлять комментарии в данной новости.

        ↓ Меню




        ↓ Опрос

        Вы добавили сайт в закладки?
        Да
        Нет


        Top 10 за месяц (Фильмы)