.
Авторизация | Регистрация
Хочешь лучшие торренты? Добавь свой email!
Добавить

Торрент скачать бесплатно

» » Реальные пацаны (2016) SATRip (сезон 9, серии 1-2 из 16) (Обновляемая) торрент скачать бесплатно



    Реальные пацаны (2016) SATRip (сезон 9, серии 1-2 из 16) (Обновляемая) торрент скачать бесплатно

    Опубликовал: Админ | Дата: 17-05-2016, 04:00 | Просмотров: 18

    Производство: ТНТ
    Жанр: Комедия
    Режиссёр: Жанна Кадникова
    В ролях: Николай Наумов, Зоя Бербер, Антон Богданов, Владимир Селиванов, Станислав Тляшев, Мария Скорницкая, Валентина Мазунина, Марина Федункив, Армен Бежанян, Игорь Ознобихин, Алексей Базанов, Анастасия Плоскова, Сергей Ершов, Татьяна Ронзина, Любовь Рудометова, Юлия Гришнина, Михаил Чуднов, Юрий Богомолов, Василий Бичев

    Описание

    16 мая 2016 года навсегда войдет в историю телевидения. В этот день совместный эксперимент телеканала ТНТ и правоохранительных органов Пермского края успешно завершен: с Николая Наумова снимают условный срок и впервые за последние шесть лет он оказывается в условиях настоящей свободы. Камера выключена и больше не преследует Коляна по пятам. Ему больше не нужно регулярно отмечаться в полицейском участке, беспокоиться за свою репутацию перед телезрителями ТНТ, жить с оглядкой на условный срок и камеру. Теперь-то дела точно пойдут в гору. Свобода Николая Наумова также принесла свободу всем остальным героям Реальных пацанов, которым больше не нужно сдерживать эмоции, включать самоцензуру и скрывать свое истинное лицо от вездесущей камеры. Камера, стоп! На этом история простого пермского пацана Коляна Наумова заканчивается, и начинается новая — история взрослого, ответственного, уверенного в себе человека, кандидата в депутаты Николая Александровича Наумова. И это не шутка. Камера, мотор! В новом сезон любимого сериалае Реальных пацанов бывший гопник Колян, благодаря финансовой помощи Сергея Ивановича Оборина, моральной поддержке Вована, Антохи и Леры, а также силами пиарщицы Олеси Геннадьевны будет строить политическую карьеру.

    Возраст: 16+ (зрителям, достигшим 16 лет)
    Дата премьеры в РФ: 8 ноября 2010

    Релиз от: ramzesII
    Продолжительность: ~ 00: 25: 00 серия
    Качество видео: SATRip
    Субтитры: Отсутствуют
    Видео: XviD, 720x400 (16: 9), 25.000 fps, 1 660 Kbps (0.231 bit/pixel)
    Аудио: MP3, 48.0 KHz, 2 ch, 192 Kbps, CBR
    Код:

    Формат : AVI
    Формат/Информация : Audio Video Interleave
    Размер файла : 307 Мбайт
    Продолжительность : 23 м.
    Общий поток : 1865 Кбит/сек
    Программа кодирования : Lavf56.40.101
    Библиотека кодирования : Boilsoft AVI tool build 30012/release
    Видео
    Идентификатор : 0
    Формат : MPEG-4 Visual
    Профиль формата : Advanced Simple@L5
    Параметр BVOP формата : 1
    Параметр QPel формата : Нет
    Параметр GMC формата : Без точки перехода
    Параметр матрицы формата : Default (H.263)
    Идентификатор кодека : XVID
    Идентификатор кодека/Подсказка : XviD
    Продолжительность : 23 м.
    Битрейт : 1660 Кбит/сек
    Ширина : 720 пикселей
    Высота : 400 пикселей
    Соотношение сторон : 16:9
    Частота кадров : 25, 000 кадров/сек
    Цветовое пространство : YUV
    Субдискретизация насыщенности : 4:2:0
    Битовая глубина : 8 бит
    Тип развёртки : Прогрессивная
    Метод сжатия : С потерями
    Бит/(Пиксели*Кадры) : 0.231
    Размер потока : 274 Мбайт (89%)
    Библиотека кодирования : XviD 67
    Аудио
    Идентификатор : 1
    Формат : MPEG Audio
    Версия формата : Version 1
    Профиль формата : Layer 3
    Режим : Joint stereo
    Расширение режима : MS Stereo
    Идентификатор кодека : 55
    Идентификатор кодека/Подсказка : MP3
    Продолжительность : 23 м.
    Вид битрейта : Постоянный
    Битрейт : 192 Кбит/сек
    Каналы : 2 канала
    Частота : 48, 0 КГц
    Метод сжатия : С потерями
    Размер потока : 31, 6 Мбайт (10%)
    Выравнивание : Соединение по промежуткам
    Продолжительность промежутка : 24 мс. (0, 60 видеокадр)
    Время предзагрузки промежутка : 504 мс.
    Библиотека кодирования : LAME3.99.5ЄЄЄЄЄЄЄ


    Скриншоты для ознакомления




    Онлайн видео Реальные пацаны (2016) SATRip (сезон любимого сериала 9, серии 1


    Прямая ссылка скачивания через uTorrent


    Реальные пацаны (2016) SATRip (сезон 9, серии 1-2 из 16) (Обновляемая)
    загрузка...
    Рейтинг →
     (голосов: 1, оценка 4/5, голосовать можно 1 раз )

    Другие торренты по теме:

  • Реальные пацаны. Возвращение (2014) WEB-DLRip [H.264] (серии 1-16) (обновляемая)
  • Реальные пацаны. Возвращение (2014) WEB-DL [720p] (серии 1-16) (обновляемая)
  • Реальные пацаны. Возвращение (2014) WEB-DLRip (Серии 1-16) (Обновляемая)
  • Реальные пацаны. Возвращение (2014) SATRip (Серии 1-16) (Обновляемая)
  • Реальные пацаны. Возвращение (2014) WEB-DLRip [H.264 / 720p-LQ] (сезон 7, серии 1-16 из (123-138 из )) [обновляемая]
  • Реальные пацаны (2015) WEB-DLRip [H.264 / 720p-LQ] (сезон 8, серии 1-2 из 20) (обновляемая) скачать через торрент бесплатно
  • Реальные пацаны (2015) WEB-DLRip (сезон 8, серии 1-2 из 20) (обновляемая) скачать через торрент бесплатно
  • Реальные пацаны (2015) SATRip (сезон 8, серии 1-2 из 20) (обновляемая) скачать через торрент бесплатно


    • Комментарии (0):

      Информация

      Информация

        Посетители, находящиеся в группе Гости, не могут оставлять комментарии в данной новости.

        ↓ Меню




        ↓ Опрос

        Вы добавили сайт в закладки?
        Да
        Нет


        Top 10 за месяц (Фильмы)