.
Авторизация | Регистрация
Хочешь лучшие торренты? Добавь свой email!
Добавить

Торрент скачать бесплатно

» » В небо на решающий бой / Kessen No Oozora e / 決戦の大空へ (1943) DVDRip торрент скачать бесплатно



    В небо на решающий бой / Kessen No Oozora e / 決戦の大空へ (1943) DVDRip торрент скачать бесплатно

    Опубликовал: Админ | Дата: 17-05-2016, 04:00 | Просмотров: 30

    Производство: Япония
    Жанр: Военная драма
    Режиссер: Кунио Ватанабэ

    Актеры
    Минору Такада, Сэцуко Хара, Масару Кодака, Томико Отиаи, Юрико Ханабуса, Эйтаро Синдо, Масао Симидзу, Содзи Киёкава, Акитакэ Коно, Исао Кимура, Кэйко Такацу

    Описание

    Фильм агитационной направленности снят по заказу Военно-морского Флота. Бесплатный сыр, сказал кто то из толпы, к чему не понятно. В фильме подробно показана подготовка юных лётчиков Ёкарэн, которые в первую очередь стремились стать камикадзэ. Всё население восхищается их подвигом. Учителя и командиры относятся к ним как к сыновьям.
    Релиз от: alf62
    Продолжительность: 01: 30: 41
    Качество видео: DVDRip
    Перевод: Любительский одноголосый (В. Рутилов)
    Автор перевода: дед_сто_лет
    Видео: Xvid, 640x480, ~1943 Kbps
    Аудио: AC3, 2 ch, 192 Kbps, CBR
    Код:

    В.небо.на.решающий.бой.1943.XviD.DVDRip.alf62.avi
    Формат : AVI
    Формат/Информация : Audio Video Interleave
    Размер файла : 1, 36 Гбайт
    Продолжительность : 1 ч. 30 м.
    Общий поток : 2145 Кбит/сек
    Программа кодирования : VirtualDubMod 1.5.10.3 |www.virtualdub-fr.org|| (build 2550/release)
    Библиотека кодирования : VirtualDubMod build 2550/release
    Видео
    Идентификатор : 0
    Формат : MPEG-4 Visual
    Профиль формата : Advanced Simple@L5
    Параметр BVOP формата : 2
    Параметр QPel формата : Нет
    Параметр GMC формата : Без точки перехода
    Параметр матрицы формата : Default (MPEG)
    Идентификатор кодека : XVID
    Идентификатор кодека/Подсказка : XviD
    Продолжительность : 1 ч. 30 м.
    Битрейт : 1943 Кбит/сек
    Ширина : 640 пикселей
    Высота : 480 пикселей
    Соотношение сторон : 4:3
    Частота кадров : 23, 976 кадра/сек
    Цветовое пространство : YUV
    Субдискретизация насыщенности : 4:2:0
    Битовая глубина : 8 бит
    Тип развёртки : Прогрессивная
    Метод сжатия : С потерями
    Бит/(Пиксели*Кадры) : 0.264
    Размер потока : 1, 23 Гбайт (91%)
    Библиотека кодирования : XviD 73
    Аудио
    Идентификатор : 1
    Формат : AC-3
    Формат/Информация : Audio Coding 3
    Расширение режима : CM (complete main)
    Параметр Endianness формата : Big
    Идентификатор кодека : 2000
    Продолжительность : 1 ч. 30 м.
    Вид битрейта : Постоянный
    Битрейт : 192 Кбит/сек
    Каналы : 2 канала
    Расположение каналов : Front: L R
    Частота : 48, 0 КГц
    Битовая глубина : 16 бит
    Метод сжатия : С потерями
    Размер потока : 125 Мбайт (9%)
    Выравнивание : Разделение по промежуткам
    Продолжительность промежутка : 42 мс. (1, 00 видеокадр)
    Время предзагрузки промежутка : 500 мс.


    Скриншоты для ознакомления




    Онлайн видео В небо на решающий бой


    Прямая ссылка скачивания через uTorrent


    В небо на решающий бой/Kessen No Oozora e/決戦の大空へ (1943) DVDRip
    загрузка...
    Рейтинг →
     (голосов: 1, оценка 4/5, голосовать можно 1 раз )

    Другие торренты по теме:

  • А.В. Засов. Лекция «Радио небо». Цикл «Разноцветное небо» (2014) WEBRip [H.264] [MP4|1920х1080]
  • А.В. Засов. Лекция «Инфракрасное небо». Цикл «Разноцветное небо» (2014) WEBRip [H.264] [MP4|1920х1080]
  • А.В. Засов. Лекция «Рентгеновское небо». Цикл «Разноцветное небо» (2014) WEBRip [H.264] [MP4|1920х1080]
  • Майкл Дрисколл | Звёздное небо. Путешествие в ночное небо. Звезды, планеты, галактики (2015) [PDF]
  • Небо падших (2014) WEBRip
  • Небо падших (2014) WEBRip
  • Обнимая небо (2013) HDTVRip [H.264] (Сезон 1, Серия 1-12 из 12)
  • Обнимая небо (2013) HDTVRip (серии 1-12 из 12)


    • Комментарии (0):

      Информация

      Информация

        Посетители, находящиеся в группе Гости, не могут оставлять комментарии в данной новости.

        ↓ Меню




        ↓ Опрос

        Вы добавили сайт в закладки?
        Да
        Нет


        Top 10 за месяц (Фильмы)