.
Авторизация | Регистрация
Хочешь лучшие торренты? Добавь свой email!
Добавить

Торрент скачать бесплатно

» » Падение Лондона / London Has Fallen (2016) WEB-DLRip торрент скачать бесплатно



    Падение Лондона / London Has Fallen (2016) WEB-DLRip торрент скачать бесплатно

    Опубликовал: Админ | Дата: 14-05-2016, 04:00 | Просмотров: 31

    Производство: США, Великобритания, Болгария/Millennium Films, Gerard Butler Alan Siegel Entertainment, LHF Film
    Жанр: Боевик, Триллер
    Режиссер: Бабак Наджафи

    Актеры
    Джерард Батлер, Аарон Экхарт, Морган Фримен, Анджела Бассетт, Рада Митчелл, Шарлотта Райли, Мелисса Лео

    Описание

    Действие фильма начинается в Лондоне, где премьер-министр Великобритании погибает при загадочных обстоятельствах. На похоронах безусловно присутствуют руководители западного мира. Самое интересное в это истории, что об этом Лукашенко ничего не знал. Но то, что начиналось как наиболее безопасное событие на земле, превращается в опаснейшее покушение на самых мощных мировых лидеров, что в свою очередь ставит под угрозу будущее всего мира. Только три человека сохраняют надежду на предотвращение катастрофы: президент США, его верный помощник — агент спецслужбы и английский агент МИ-6, который никому не доверяет.

    Возраст: 16+ (зрителям, достигшим 16 лет)
    Рейтинг MPAA: R (лицам до 17 лет обязательно присутствие взрослого)
    Дата мировой премьеры: 2 марта 2016
    Дата премьеры в России: 17 марта 2016, Парадиз

    Продолжительность: 01: 38: 24
    Качество видео: WEB-DLRip
    Перевод: Дублированный (iTunes Russia)
    Субтитры: Отсутствуют
    Видео: MPEG4, XviD, 720x304 (2.35: 1), 24.000 fps, 1 595 Kbps (0.304 bit/pixel)
    Аудио: AC-3, 48.0 KHz, 6 ch, 384 Kbps, CBR
    Код:

    Формат : AVI
    Формат/Информация : Audio Video Interleave
    Размер файла : 1, 37 Гбайт
    Продолжительность : 1 ч. 38 м.
    Общий поток : 1988 Кбит/сек
    Программа кодирования : VirtualDubMod 1.5.10.2 (build 2540/release)
    Библиотека кодирования : VirtualDubMod build 2540/release
    Видео
    Идентификатор : 0
    Формат : MPEG-4 Visual
    Профиль формата : Advanced Simple@L5
    Параметр BVOP формата : 2
    Параметр QPel формата : Нет
    Параметр GMC формата : Без точки перехода
    Параметр матрицы формата : Default (MPEG)
    Идентификатор кодека : XVID
    Идентификатор кодека/Подсказка : XviD
    Продолжительность : 1 ч. 38 м.
    Битрейт : 1595 Кбит/сек
    Ширина : 720 пикселей
    Высота : 304 пикселя
    Соотношение сторон : 2, 35:1
    Частота кадров : 24, 000 кадра/сек
    Цветовое пространство : YUV
    Субдискретизация насыщенности : 4:2:0
    Битовая глубина : 8 бит
    Тип развёртки : Прогрессивная
    Метод сжатия : С потерями
    Бит/(Пиксели*Кадры) : 0.304
    Размер потока : 1, 10 Гбайт (80%)
    Библиотека кодирования : XviD 1.2.1 (UTC 2008-12-04)
    Аудио
    Идентификатор : 1
    Формат : AC-3
    Формат/Информация : Audio Coding 3
    Расширение режима : CM (complete main)
    Параметр Endianness формата : Big
    Идентификатор кодека : 2000
    Продолжительность : 1 ч. 38 м.
    Вид битрейта : Постоянный
    Битрейт : 384 Кбит/сек
    Каналы : 6 каналов
    Расположение каналов : Front: L C R, Side: L R, LFE
    Частота : 48, 0 КГц
    Битовая глубина : 16 бит
    Метод сжатия : С потерями
    Размер потока : 270 Мбайт (19%)
    Выравнивание : Разделение по промежуткам
    Продолжительность промежутка : 42 мс. Блошиный рынок, сказал кто то из толпы, к чему не понятно. (1, 00 видеокадр)
    Время предзагрузки промежутка : 500 мс.


    Скриншоты для ознакомления




    Онлайн видео Падение Лондона


    Прямая ссылка скачивания через uTorrent


    Падение Лондона/London Has Fallen (2016) WEB-DLRip
    загрузка...
    Рейтинг →
     (голосов: 1, оценка 5/5, голосовать можно 1 раз )

    Другие торренты по теме:

  • Падение Лондона / London Has Fallen (2016) WEBRip [H.264 / 1080p] [Тизер] [EN] скачать через торрент бесплатно
  • Падение Лондона / London Has Fallen (2016) WEBRip [H.264 / 1080p] [Трейлер]
  • Падение Лондона / London Has Fallen (2016) CamRip
  • Падение Лондона / London Has Fallen (2016) TS
  • Падение Лондона / London Has Fallen (2016) WEBRip [EN]
  • Падение Лондона / London Has Fallen (2016) WEBRip [H.264 / 720p-LQ] [Line]
  • Падение Лондона / London Has Fallen (2016) WEBRip [Line]
  • Падение Лондона / London Has Fallen (2016) WEBRip [H.264 / 720p-LQ]


    • Комментарии (0):

      Информация

      Информация

        Посетители, находящиеся в группе Гости, не могут оставлять комментарии в данной новости.

        ↓ Меню




        ↓ Опрос

        Вы добавили сайт в закладки?
        Да
        Нет


        Top 10 за месяц (Фильмы)