.
Авторизация | Регистрация
Хочешь лучшие торренты? Добавь свой email!
Добавить

Торрент скачать бесплатно

» » С 5 до 7. Время любовников / 5 to 7 (2014) HDTV [H.264 / 1080i-LQ] торрент скачать бесплатно



    С 5 до 7. Время любовников / 5 to 7 (2014) HDTV [H.264 / 1080i-LQ] торрент скачать бесплатно

    Опубликовал: Админ | Дата: 12-05-2016, 04:00 | Просмотров: 31

    Производство: США, Demarest Films, Mockingbird Pictures
    Жанр: Драма, Мелодрама, Комедия
    Режиссер: Виктор Левин

    Актеры
    Беренис Марло, Оливия Тирлби, Эрик Столц, Антон Ельчин, Гленн Клоуз, Фрэнк Ланджелла, Ламбер Вильсон, Жослин ДеБоэр, Дов Тифенбах, Джозеф Д’Онофрио, Амина Робинсон, Келли Хартнет, Джулиан Бонд, Нэнси Дигонис, Грегг Майклс, Пол Торнтон, Хезер Уоррен, Дэвид Шеннон, Франческо Д’Онофрио, Лорен Карлсон

    Описание

    Молодой американец Брайан встречает красивую, веселую и очаровательную француженку Ариэль, с которой у него завязывается роман, существующий на одном условии: общаются они исключительно с 5 до 7 вечера, потому что Ариэль замужем. Для французов, как выясняется, такая форма отношений — привычное дело, так что со временем герои признаются в происходящем и мужу Ариэль, французскому дипломату, и ее детям, а заодно и маме Брайана. И всем, кажется, весело — пока влюбленный, но ущемленный Брайан не начинает страдать.

    Возраст: 16+ (зрителям, достигшим 16 лет)
    Рейтинг MPAA: R (лицам до 17 лет обязательно присутствие взрослого)
    Продолжительность: 01: 28: 02
    Качество видео: HDTV 1080i-LQ
    Перевод: Многоголосый закадровый
    Видео: AVC/H.264, 1920x1080, ~3643 Kbps
    Аудио: MP2, 2 ch, 160 Kbps, CBR
    Код:

    Общее
    Идентификатор : 16 (0x10)
    Полное имя : 5 to 7_HD.ts
    Формат : MPEG-TS
    Размер файла : 2, 47 Гбайт
    Продолжительность : 1 ч. 28 м.
    Режим общего битрейта : Переменный
    Общий поток : 4002 Кбит/сек
    Видео
    Идентификатор : 3408 (0xD50)
    Идентификатор меню : 1408 (0x580)
    Формат : AVC
    Формат/Информация : Advanced Video Codec
    Профиль формата :High@L4.0
    Параметр CABAC формата : Да
    Параметр ReFrames формата : 3 кадра
    Параметр GOP формата : M=4, N=32
    Идентификатор кодека : 27
    Продолжительность : 1 ч. 28 м.
    Битрейт : 3643 Кбит/сек
    Ширина : 1920 пикселей
    Высота : 1080 пикселей
    Соотношение сторон : 16:9
    Частота кадров : 25, 000 кадров/сек
    Стандарт вещания : PAL
    Цветовое пространство : YUV
    Субдискретизация насыщенности : 4:2:0
    Битовая глубина : 8 бит
    Тип развёртки : Чересстрочная
    Порядок развёртки : Верхнее поле первое
    Бит/(Пиксели*Кадры) : 0.070
    Размер потока : 2, 25 Гбайт (91%)
    Основные цвета : BT.709
    Характеристики трансфера : BT.709
    Коэффициенты матрицы : BT.709
    Аудио
    Идентификатор : 4408 (0x1138)
    Идентификатор меню : 1408 (0x580)
    Формат : MPEG Audio
    Версия формата : Version 1
    Профиль формата : Layer 2
    Идентификатор кодека : 4
    Продолжительность : 1 ч. 28 м.
    Вид битрейта : Постоянный
    Битрейт : 160 Кбит/сек
    Каналы : 2 канала
    Частота : 48, 0 КГц
    Метод сжатия : С потерями
    Задержка видео : 134 мс.
    Размер потока : 101 Мбайт (4%)
    Язык : std
    Язык, дополнительно : Clean effects


    Скриншоты для ознакомления




    Онлайн видео С 5 до 7. Время любовников


    Прямая ссылка скачивания через uTorrent


    С 5 до 7. Время любовников/5 to 7 (2014) HDTV [H.264/1080i-LQ]
    загрузка...
    Рейтинг →
     (голосов: 1, оценка 5/5, голосовать можно 1 раз )

    Другие торренты по теме:

  • С 5 до 7. Время любовников / 5 to 7 (2014) WEB-DLRip [Line] скачать через торрент бесплатно
  • С 5 до 7. Время любовников / 5 to 7 (2014) HDRip
  • С 5 до 7. Время любовников / 5 to 7 (2014) BDRemux [H.264 / 1080p]
  • С 5 до 7. Время любовников / 5 to 7 (2014) BDRip [H.264 / 1080p]
  • С 5 до 7. Время любовников / 5 to 7 (2014) BDRip [H.264 / 1080p-LQ]


    • Комментарии (0):

      Информация

      Информация

        Посетители, находящиеся в группе Гости, не могут оставлять комментарии в данной новости.

        ↓ Меню




        ↓ Опрос

        Вы добавили сайт в закладки?
        Да
        Нет


        Top 10 за месяц (Фильмы)