.
Авторизация | Регистрация
Хочешь лучшие торренты? Добавь свой email!
Добавить

Торрент скачать бесплатно

» » Семья / The Family (2016) WEB-DL [H.264 / 720p-LQ] (сезон 1, серии 1-10 из 12) BaibaKo (обновляемая) торрент скачать бесплатно




    Семья / The Family (2016) WEB-DL [H.264 / 720p-LQ] (сезон 1, серии 1-10 из 12) BaibaKo (обновляемая) торрент скачать бесплатно

    Опубликовал: Админ | Дата: 10-05-2016, 04:00 | Просмотров: 26

    Производство: США/Minnesota Logging Company, Mandeville Films, ABC Studios
    Жанр: Детектив, Драма
    Режиссер: Джон Грэй, Холли Дэйл, Пол МакГиган

    Актеры
    Джоан Аллен, Зак Гилфорд, Лиам Джеймс, Рармиан Ньютон, Руперт Грейвз, Элисон Пилл, Эндрю МакКарти, Флориана Лима, Марго Бингхэм, Мадлен Артур

    Описание

    Когда сын Клэр Уоррен, мэра Калифорнийского города Ред Пайнс, возвращается после двенадцати лет считаясь мертвым, это затрагивает жизни не только семьи Уорренов, но и других персон, включая осужденного в его убийстве и сержанта, которая сделала карьеру на этом громком деле. О таком странном сюжете не догадывалась даже Верка Сердючка. Примечательно, что он возвращается как раз тогда, когда Клэр выдвигает свою кандидатуру на пост губернатора.

    Дата мировой премьеры: 3 марта 2016
    Продолжительность: ~ 00: 43: 00 серия
    Качество видео: WEB-DL
    Перевод: Многоголосый закадровый, профессиональный -BaibaKo
    Автор перевода: Фиона Кудреватых и Никита Коваль
    Озвучка: Лира Грим, Anna_Smile, Александр Фурман и Артемий Мирон
    Видео: AVC/H.264, 1280x720 (16: 9), 4013 Kbps
    Аудио Rus: AC3, 48, 0 kHz, 6 ch, 384 kb/s - многоголосый закадровый
    Аудио Eng: AC3, 48, 0 kHz, 6 ch, 384 kb/s - оригинал
    Код:
    General
    Unique ID : 225364677976414936332300848469538689847 (0xA98BA87DF91ABB828BF2DCCBFAC2D337)
    Complete name : The Family [S01] [BaibaKo]The.Family.s01e01.HD720p.WEB-DL.Rus.Eng.BaibaKo.tv.mkv
    Format : Matroska
    Format version : Version 4/Version 2
    File size : 1.44 GiB
    Duration : 42mn 59s
    Overall bit rate : 4 783 Kbps
    Encoded date : UTC 2016-05-04 18:54:36
    Writing application : mkvmerge v9.1.0 (\'Little Earthquakes\') 64bit
    Writing library : libebml v1.3.3 + libmatroska v1.4.4
    Video
    ID : 1
    Format : AVC
    Format/Info : Advanced Video Codec
    Format profile :High@L3.1
    Format settings, CABAC : No
    Format settings, ReFrames : 2 frames
    Codec ID : V_MPEG4/ISO/AVC
    Duration : 42mn 59s
    Bit rate : 4 013 Kbps
    Width : 1 280 pixels
    Height : 720 pixels
    Display aspect ratio : 16:9
    Frame rate mode : Constant
    Frame rate : 23.976 (24000/1001) fps
    Color space : YUV
    Chroma subsampling : 4:2:0
    Bit depth : 8 bits
    Scan type : Progressive
    Bits/(Pixel*Frame) : 0.182
    Stream size : 1.20 GiB (84%)
    Language : English
    Default : Yes
    Forced : No
    Color range : Limited
    Color primaries : BT.709
    Transfer characteristics : BT.709
    Matrix coefficients : BT.709
    Audio #1
    ID : 2
    Format : AC-3
    Format/Info : Audio Coding 3
    Mode extension : CM (complete main)
    Format settings, Endianness : Big
    Codec ID : A_AC3
    Duration : 42mn 59s
    Bit rate mode : Constant
    Bit rate : 384 Kbps
    Channel(s) : 6 channels
    Channel positions : Front: L C R, Side: L R, LFE
    Sampling rate : 48.0 KHz
    Frame rate : 31.250 fps (1536 spf)
    Compression mode : Lossy
    Stream size : 118 MiB (8%)
    Language : Russian
    Default : Yes
    Forced : No
    Audio #2
    ID : 3
    Format : AC-3
    Format/Info : Audio Coding 3
    Mode extension : CM (complete main)
    Format settings, Endianness : Big
    Codec ID : A_AC3
    Duration : 42mn 59s
    Bit rate mode : Constant
    Bit rate : 384 Kbps
    Channel(s) : 6 channels
    Channel positions : Front: L C R, Side: L R, LFE
    Sampling rate : 48.0 KHz
    Frame rate : 31.250 fps (1536 spf)
    Compression mode : Lossy
    Stream size : 118 MiB (8%)
    Language : English
    Default : No
    Forced : No


    Скриншоты для ознакомления




    Онлайн видео Семья





    Семья/The Family (2016) WEB-DL [H.264/720p-LQ] (сезон 1, серии 1-10 из 12) BaibaKo (обновляемая)
    загрузка...
    Рейтинг →
     (голосов: 1, оценка 4/5, голосовать можно 1 раз )

    Другие торренты по теме:

  • Семья полицейских / Family of Cops (1995) DVDRip [H.264] скачать через торрент бесплатно
  • Семья благодарения / A Family Thanksgiving (2010) HDTV [H.264 / 1080i]
  • Семья / The Family (2016) WEB-DL [H.264 / 1080p-LQ] (сезон 1, серии 1-5 из 13) BaibaKo (обновляемая)
  • Семья / The Family (2016) WEB-DLRip (сезон 1, серия 1 из 12) Кириллица (Обновляемая)
  • N.G. Большие кошки. Удивительная семья / Big Cats: An Amazing Animal Family (2015) HDTVRip [H.264 / 1080p] (серии 1-2 из 2)


    • Комментарии (0):

      Информация

      Информация

        Посетители, находящиеся в группе Гости, не могут оставлять комментарии в данной новости.

        ↓ Меню




        ↓ Опрос

        Вы добавили сайт в закладки?
        Да
        Нет


        Top 10 за месяц (Фильмы)