.
Авторизация | Регистрация
Хочешь лучшие торренты? Добавь свой email!
Добавить

Торрент скачать бесплатно

» » В поле зрения / Подозреваемый / Person of Interest (2016) HDTVRip (сезон 5, серии 1 из 13) Coldfilm(обновляемая) торрент скачать бесплатно




    В поле зрения / Подозреваемый / Person of Interest (2016) HDTVRip (сезон 5, серии 1 из 13) Coldfilm(обновляемая) торрент скачать бесплатно

    Опубликовал: Админ | Дата: 7-05-2016, 04:00 | Просмотров: 6

    Производство: США
    Жанр: фантастика, боевик, приключения, драма
    Режиссер: Крис Фишер, Ричард Дж. Льюис, Фред Туа

    Актеры
    Джеймс Кэвизел, Майкл Эмерсон, Кевин Чэпмен, Эми Акер, Тараджи П. Хенсон, Сара Шахи, Джон Нолан, Энрико Колантони и др.

    Описание

    Мистер Финч — загадочный миллиардер, разработавший компьютерную программу, которая предсказывает будущих жертв преступлений. Финч нанимает Риза — бывшего агента ЦРУ, предполагаемо, мертвого, чтобы помочь остановить эти преступления, используя ресурсы и технику Финча, и навыки и знания Риза.

    Возраст: 16+ (зрителям, достигшим 16 лет)
    Релиз от: Сoldfilm
    Продолжительность: ~00: 44: 00 серия
    Качество видео: HDTVRip
    Перевод: Двухголосый закадровый, любительский - Сoldfilm
    Реклама: присутствуют видео, аудио, текстовые вставки рекламы.
    Видео: Xvid, 720x400, ~989 Кбит/сек
    Аудио Rus: MPEG Layer 3, 2 канала, 128 Кбит/сек - двухголосый закадровый
    Код:

    Общее
    Полное имя : E:СериалыВ поле зрения 5 сезон любимого сериалаPerson.of.Interest.S05.400p.HDTVPerson.of.Interest.S05E01.400p.HDTV.avi
    Формат : AVI
    Формат/Информация : Audio Video Interleave
    Размер файла : 357 Мбайт
    Продолжительность : 44 м.
    Общий поток : 1129 Кбит/сек
    Программа кодирования : Lavf54.63.104
    Видео
    Идентификатор : 0
    Формат : xvid
    Идентификатор кодека : xvid
    Продолжительность : 44 м.
    Битрейт : 989 Кбит/сек
    Ширина : 720 пикселей
    Высота : 400 пикселей
    Соотношение сторон : 16:9
    Частота кадров : 23, 976 кадра/сек
    Тип развёртки : Прогрессивная
    Бит/(Пиксели*Кадры) : 0.143
    Размер потока : 313 Мбайт (88%)
    Аудио
    Идентификатор : 1
    Формат : MPEG Audio
    Версия формата : Version 1
    Профиль формата : Layer 3
    Режим : Joint stereo
    Идентификатор кодека : 55
    Идентификатор кодека/Подсказка : MP3
    Продолжительность : 44 м.
    Вид битрейта : Постоянный
    Битрейт : 128 Кбит/сек
    Каналы : 2 канала
    Частота : 48, 0 КГц
    Метод сжатия : С потерями
    Размер потока : 40, 5 Мбайт (11%)
    Выравнивание : Соединение по промежуткам
    Продолжительность промежутка : 24 мс. Прикольно все это наверно придумал Чак Норрис потратив достаточно времени. (0, 58 видеокадр)
    Библиотека кодирования : LAME3.99.5


    Скриншоты для ознакомления




    Онлайн видео В поле зрения



    В поле зрения/Подозреваемый/Person of Interest (2016) HDTVRip (сезон 5, серии 1 из 13) Coldfilm(обновляемая)
    загрузка...
    Рейтинг →
     (голосов: 1, оценка 5/5, голосовать можно 1 раз )

    Другие торренты по теме:

  • В поле зрения / Person of Interest (2014) WEB-DL [H.264 / 720p-LQ] (Сезон 4, Серии 1 из 22) (NewStudio) (Обновляемая)
  • В поле зрения / Подозреваемый / Person of Interest (2014) WEB-DLRip (сезон 4, серии 1 из ) NewStudio (Обновляемая)
  • В поле зрения / Подозреваемый / Person of Interest (2014) WEB-DL [H.264 / 720p-LQ] (Сезон 4, серия 1 из ) (LostFilm) (обновляемая)
  • В поле зрения / Подозреваемый / Person of Interest (2014) WEB-DLRip (сезон 4, серии 1 из ) LostFilm (Обновляемая)
  • В поле зрения (Подозреваемый) (Person of Interest) / (Сезон 1-4, серии 1-70 из 90) LostFilm (2011-2014) [MP4|720x400] <WEB-DLRip [H.264]> скачать через торрент бесплатно
  • Подозреваемые / В поле зрения / Person of Interest (2014) WEB-DL [H.264 / 1080p-LQ] (сезон 4, серии 1-15 из 22) (NewStudio) (обновляемая)
  • В поле зрения / Подозреваемый / Person of Interest (2014) WEB-DLRip (сезон 4, серии 1-19 из 22) NewStudio (обновляемая) скачать через торрент бесплатно
  • В поле зрения / Подозреваемый / Person of Interest (2014) WEB-DLRip (сезон 4, серии 1-19 из 22) LostFilm (обновляемая) скачать через торрент бесплатно


    • Комментарии (0):

      Информация

      Информация

        Посетители, находящиеся в группе Гости, не могут оставлять комментарии в данной новости.

        ↓ Меню




        ↓ Опрос

        Вы добавили сайт в закладки?
        Да
        Нет


        Top 10 за месяц (Фильмы)