.
Авторизация | Регистрация
Хочешь лучшие торренты? Добавь свой email!
Добавить

Торрент скачать бесплатно

» » Он снова здесь / Er ist wieder da (2015) BDRip [H.264] торрент скачать бесплатно




    Он снова здесь / Er ist wieder da (2015) BDRip [H.264] торрент скачать бесплатно

    Опубликовал: Админ | Дата: 7-05-2016, 04:00 | Просмотров: 56

    Производство: Германия, Claussen Wbke Putz Filmproduktion, Constantin Film Produktion GmbH, Mythos Film
    Жанр: Драма, Комедия
    Режиссер: Давид Внендт

    Актеры
    Оливер Мазуччи, Фабиан Буш, Кристоф Мария, Хербст Катя, Риман Франциска, Вульф Ларс, Рудольф Михаэль, Кесслер Даниэль, Аминати Даги Би Фред Аарон Блаке

    Описание

    Берлин, наши дни. На заброшенном пустыре возвращается к жизни черный кошмар XX века — Адольф Гитлер, кровавый диктатор, погрузивший Германию, а за нею и половину человечества в ужас Второй мировой войны, непосредственный виновник десятков миллионов смертей. Ни власти, ни сторонников, ни жилья, ни денег у него теперь нет, но есть опыт восхождения со дна на вершины и твердая вера в победу национал-социализма. Неподготовленный мир принимает бывшего диктатора за гениального актера, его гневные речи взрывают интернет, и… Гитлер второй раз в жизни обретает статус суперзвезды. Самое интересное в это истории, что об этом Лукашенко ничего не знал. Чем же это обернется в наше время?

    Возраст: 16+ (зрителям, достигшим 16 лет)
    Рейтинг MPAA: R (лицам до 17 лет обязательно присутствие взрослого)
    Релиз от: smithland
    Продолжительность: 01: 54: 54
    Качество видео: BDRip
    Перевод: Двуголосый закадровый
    Видео: AVC/H.264, 960x520, ~1480 Kbps
    Аудио: AC3, 2 ch, 160 Kbps, CBR
    Код:

    General
    Unique ID : 223163704102686723563934331521009501282 (0xA7E3C41A183F04ECBF8604062904C462)
    Complete name : Он снова здесь.mkv
    Format : Matroska
    Format version : Version 4/Version 2
    File size : 1.29 GiB
    Duration : 1h 54mn
    Overall bit rate : 1 604 Kbps
    Movie name : Он снова здесь (rip by smithland)
    Encoded date : UTC 2016-05-06 14:47:47
    Writing application : mkvmerge v9.0.1 (\'Obstacles\') 64bit
    Writing library : libebml v1.3.3 + libmatroska v1.4.4
    Attachements : COVER.jpg
    DURATION : 01:54:54.464000000
    NUMBER_OF_FRAMES : 215452
    NUMBER_OF_BYTES : 137889280
    _STATISTICS_WRITING_APP : mkvmerge v9.0.1 (\'Obstacles\') 64bit
    _STATISTICS_WRITING_DATE_UTC : 2016-05-06 14:47:47
    _STATISTICS_TAGS : BPS DURATION NUMBER_OF_FRAMES NUMBER_OF_BYTES
    Video
    ID : 1
    Format : AVC
    Format/Info : Advanced Video Codec
    Format profile : High@L4
    Format settings, CABAC : Yes
    Format settings, ReFrames : 10 frames
    Codec ID : V_MPEG4/ISO/AVC
    Duration : 1h 54mn
    Bit rate : 1 480 Kbps
    Width : 960 pixels
    Height : 520 pixels
    Display aspect ratio : 1.85:1
    Frame rate mode : Constant
    Frame rate : 25.000 fps
    Color space : YUV
    Chroma subsampling : 4:2:0
    Bit depth : 8 bits
    Scan type : Progressive
    Bits/(Pixel*Frame) : 0.119
    Stream size : 1.13 GiB (88%)
    Writing library : x264 core 146 r2538 121396c
    Encoding settings : cabac=1/ref=10/deblock=1:-2:0/analyse=0x3:0x133/me=umh/subme=11/psy=1/psy_rd=1.33:0.35/mixed_ref=1/me_range=30/chroma_me=1/trellis=2/8x8dct=1/cqm=0/deadzone=21, 11/fast_pskip=1/chroma_qp_offset=-4/threads=12/lookahead_threads=1/sliced_threads=0/nr=0/decimate=0/interlaced=0/bluray_compat=0/constrained_intra=0/bframes=6/b_pyramid=2/b_adapt=1/b_bias=0/direct=1/weightb=1/open_gop=1/weightp=2/keyint=250/keyint_min=25/scenecut=40/intra_refresh=0/rc_lookahead=40/rc=abr/mbtree=1/bitrate=1480/ratetol=1.0/qcomp=0.60/qpmin=0/qpmax=69/qpstep=4/ip_ratio=1.40/aq=1:1.10
    Language : German
    Default : Yes
    Forced : Yes
    Color range : Limited
    Color primaries : Generic film
    Audio
    ID : 2
    Format : AC-3
    Format/Info : Audio Coding 3
    Mode extension : CM (complete main)
    Format settings, Endianness : Big
    Codec ID : A_AC3
    Duration : 1h 54mn
    Bit rate mode : Constant
    Bit rate : 160 Kbps
    Channel(s) : 2 channels
    Channel positions : Front: L R
    Sampling rate : 48.0 KHz
    Compression mode : Lossy
    Stream size : 132 MiB (10%)
    Language : Russian
    Default : Yes
    Forced : Yes


    Скриншоты для ознакомления




    Онлайн видео Он снова здесь



    Он снова здесь/Er ist wieder da (2015) BDRip [H.264]
    загрузка...
    Рейтинг →
     (голосов: 1, оценка 3/5, голосовать можно 1 раз )

    Другие торренты по теме:

  • Тимур Вермеш | Он снова здесь (2014) [MP3] скачать через торрент бесплатно
  • Он снова здесь / Er Ist Wieder Da / Look Whos Back (2015) BDRip [H.264 / 1080p] [GER / EN Sub]
  • Он снова здесь / Er ist wieder da (2015) HDRip
  • Он снова здесь / Er ist wieder da (2015) BDRip [H.264 / 1080p]


    • Комментарии (0):

      Информация

      Информация

        Посетители, находящиеся в группе Гости, не могут оставлять комментарии в данной новости.

        ↓ Меню




        ↓ Опрос

        Вы добавили сайт в закладки?
        Да
        Нет


        Top 10 за месяц (Фильмы)