.
Авторизация | Регистрация
Хочешь лучшие торренты? Добавь свой email!
Добавить

Торрент скачать бесплатно

» » Законы улиц (2014) SATRip [H.264] (серии 1-4 из 24) (Обновляемая) торрент скачать бесплатно




    Законы улиц (2014) SATRip [H.264] (серии 1-4 из 24) (Обновляемая) торрент скачать бесплатно

    Опубликовал: Админ | Дата: 6-05-2016, 04:00 | Просмотров: 15

    Производство: Россия/Форвард Фильм и Центр кинопроизводства
    Жанр: Детектив, Криминал
    Режиссер: Рустам Уразаев

    Актеры
    Владимир Фекленко, Максим Щёголев, Денис Рожков, Иван Соловьёв , Дмитрий Горевой, Сергей Мурзин, Евгения Соляных, Николай Козак, Андрей Белозёров, Елена Коллегова, Александр Печенин, Александр Кухаренко, Олег Новиков , Анна Кирсанова, Марина Дианова, Евгений Крохин, Анна Троянская, Мария Белянская, Владимир Кебин, Виктор Конухин, Сергей Марухин, Евгений Булдаков, Алексей Коновалов, Анна Скайнер, Константин Соколов, Нюяна Куо, Дмитрий Соколов, Александр Сергеев , Светлана Кленина, Александр Сухинин, Дмитрий Заволокин, Виктория Таранец, Людмила Герасимова, Иван Литвинов, Роман Майоров, Игорь Скурихин, Михаил Половенко, Стэнли Красовицки, Артем Сучков, Евгений Рябов, Юлия Кудояр, Александр Егерев, Евгения Ткач, Алан Догузов, Игорь Поселенов, Олег Пыхонин, Дарья Любшина-Луран, Полина Тузовская, Александра Велескевич

    Описание

    Ежедневная задача оперативников Богуна, Стешина, Макаркина и Осипова — выжить, отработать смену и вернуться домой целыми и невредимыми, не забыв выкроить время для своей личной жизни среди бесконечного риска и угроз.Михаил Богун все делает на бегу: разоблачает преступников, влюбляется, ссорится, выстраивает логические цепочки. Денис Стешин — недавний выпускник Высшей школы полиции и сын полицейского, который только осваивается в оперативном отделе. Юношеский максимализм Дениса иногда мешает делу, но опытный и рассудительный коллега Сергей Осипов сдерживает юношеский пыл. Балагур и душа компании эксперт-криминалист Дмитрий Макаркин, кажется, не знает усталости — без его участия не обходится ни одно дело опергруппы. Он всегда готов подставить плечо другу и подбодрить товарища, но иногда и у него есть повод для грусти: Макаркин живет на две семьи, что доставляет больше проблем, чем радости.

    Возраст: 16+ (зрителям, достигшим 16 лет)
    Продолжительность: ~00: 45: 00 серия
    Качество видео: SATRip
    Видео: AVC/H.264, 720х400, ~1650 Кбит/сек
    Аудио: AC3, 192 Кбит/сек, 2 канала
    Код:

    Общее
    Уникальный идентификатор : 175168496016805784500922408596627553368 (0x83C839A55825FF46A1CAEDFDC2107C58)
    Полное имя : D:Законы улиц1 серия_Законы улиц_rip by_Aleksan55.mkv
    Формат : Matroska
    Версия формата : Version 2
    Размер файла : 604 Мбайт
    Продолжительность : 45 м.
    Общий поток : 1844 Кбит/сек
    Дата кодирования : UTC 2016-05-04 14:16:16
    Программа кодирования : mkvmerge v7.8.0 (\'River Man\') 32bit built on Apr 3 2015 12:11:22
    Библиотека кодирования : libebml v1.3.1 + libmatroska v1.4.2
    Видео
    Идентификатор : 1
    Формат : AVC
    Формат/Информация : Advanced Video Codec
    Профиль формата :High@L4.1
    Параметр CABAC формата : Да
    Параметр ReFrames формата : 13 кадров
    Идентификатор кодека : V_MPEG4/ISO/AVC
    Продолжительность : 45 м.
    Битрейт : 1650 Кбит/сек
    Ширина : 720 пикселей
    Высота : 400 пикселей
    Соотношение сторон : 16:9
    Режим частоты кадров : Постоянный
    Частота кадров : 25, 000 кадров/сек
    Цветовое пространство : YUV
    Субдискретизация насыщенности : 4:2:0
    Битовая глубина : 8 бит
    Тип развёртки : Прогрессивная
    Бит/(Пиксели*Кадры) : 0.229
    Размер потока : 529 Мбайт (88%)
    Библиотека кодирования : x264 core 146 r2538 121396c
    Настройки программы : cabac=1/ref=13/deblock=1:-2:-2/analyse=0x3:0x113/me=umh/subme=9/psy=1/psy_rd=1.00:0.15/mixed_ref=0/me_range=32/chroma_me=1/trellis=2/8x8dct=1/cqm=0/deadzone=21, 11/fast_pskip=1/chroma_qp_offset=-3/threads=4/lookahead_threads=4/sliced_threads=0/nr=0/decimate=1/interlaced=0/bluray_compat=0/constrained_intra=0/bframes=13/b_pyramid=2/b_adapt=1/b_bias=0/direct=3/weightb=1/open_gop=0/weightp=2/keyint=250/keyint_min=25/scenecut=40/intra_refresh=0/rc_lookahead=40/rc=2pass/mbtree=1/bitrate=1650/ratetol=1.0/qcomp=0.60/qpmin=0/qpmax=69/qpstep=4/cplxblur=20.0/qblur=0.5/ip_ratio=1.40/aq=1:1.20
    Default : Да
    Forced : Нет
    Цветовой диапазон : Limited
    Основные цвета : BT.601 PAL
    Характеристики трансфера : BT.470 System B, BT.470 System G
    Коэффициенты матрицы : BT.601
    Аудио
    Идентификатор : 2
    Формат : AC-3
    Формат/Информация : Audio Coding 3
    Расширение режима : CM (complete main)
    Параметр Endianness формата : Big
    Идентификатор кодека : A_AC3
    Продолжительность : 45 м.
    Вид битрейта : Постоянный
    Битрейт : 192 Кбит/сек
    Каналы : 2 канала
    Расположение каналов : Front: L R
    Частота : 48, 0 КГц
    Метод сжатия : С потерями
    Размер потока : 62, 9 Мбайт (10%)
    Default : Да
    Forced : Нет


    Скриншоты для ознакомления




    Онлайн видео Законы улиц (2014) SATRip [H.264] (серии 1



    Законы улиц (2014) SATRip [H.264] (серии 1-4 из 24) (Обновляемая)
    загрузка...
    Рейтинг →
     (голосов: 1, оценка 4/5, голосовать можно 1 раз )

    Другие торренты по теме:

  • Законы улиц (2014) HDTVRip (серии 1-8 из 24) (обновляемая)


    • Комментарии (0):

      Информация

      Информация

        Посетители, находящиеся в группе Гости, не могут оставлять комментарии в данной новости.

        ↓ Меню




        ↓ Опрос

        Вы добавили сайт в закладки?
        Да
        Нет


        Top 10 за месяц (Фильмы)