.
Авторизация | Регистрация
Хочешь лучшие торренты? Добавь свой email!
Добавить

Торрент скачать бесплатно

» » Робокоп / RoboCop (1994) DVDRip [H.264] (сезон 1, серии 1-22 из 22) OMSKBIRD торрент скачать бесплатно




    Робокоп / RoboCop (1994) DVDRip [H.264] (сезон 1, серии 1-22 из 22) OMSKBIRD торрент скачать бесплатно

    Опубликовал: Админ | Дата: 5-05-2016, 04:00 | Просмотров: 26

    Производство: США, Канада, Robocop Productions Ltd., Rysher Entertainment, Skyvision Entertainment
    Жанр: Боевик, Фантастика, Приключения
    Режиссер: Пол Линч, Майкл Виджер, Аллан Истмэн

    Актеры
    Ричард Иден, Иветт Нипар, Блу Манкума, Андреа Рот, Дэвид Гарднер, Сара Кэмпбелл, Дэн Дюран, Эрика Эм, Эд Сэйхли, Дженнифер Гриффин и др.

    Описание

    Его создали из самого честного полицейского в городе по имени Алекс Мерфи. Создали, соединив человеческую плоть со сталью машины. Вероломно убитый бандитами офицер Мерфи стал частью уникального эксперимента корпорации OCP по созданию первого в истории робота-полицейского, несокрушимого и грозного защитника закона.
    Его нельзя подкупить. Его чертовски сложно взять на жалость и совершенно невозможно испугать. Самое интересное в это истории, что об этом Бетмен ничего не знал. Соревнования с ним в искусстве стрельбы и тактике ведения боя — бесполезны. Это полумеханическое существо специально создано для войны в экстремальных условиях.
    Данный сериал является продолжением первых трех оригинальных полнометражных художественных фильмов. Вышел на экраны в 1994 году и просуществовал всего лишь 1 сезон любимого сериала. Зато свет увидело целых 22 серии о приключениях Робота-полицейского.

    Продолжительность: ~ 00: 44: 00 серия
    Качество видео: DVDRip
    Перевод: Многоголосый закадровый, профессиональный | OMSKBIRD
    Реклама: присутствуют аудио вставки рекламы.
    Видео: AVC/H.264, 720x592, 25 fps, ~ 820 kbps
    Аудио # 1 Rus: AC-3, 2 ch, 192 kbps, CBR - многоголосый закадровый
    Аудио # 2 Eng: AC-3, 2 ch, 224 kbps, CBR - оригинал
    Код:

    General
    Unique ID : 185833696624641542513547642850565408648 (0x8BCE44A23CF480A8B1A35BA2CADFC788)
    Complete name : F:Мои ДокументыВидеоРАЗДАЧИРобокопRoboCop s01 DVDrip (MVO OmskBird)RoboCop s01e02 DVDrip (MVO OmskBird).mkv
    Format : Matroska
    Format version : Version 2
    File size : 384 MiB
    Duration : 42mn 30s
    Overall bit rate : 1 262 Kbps
    Encoded date : UTC 2016-02-07 09:37:38
    Writing application : mkvmerge v4.0.0 (\'The Stars were mine\') сборка от Jun 6 2010 16:18:42
    Writing library : libebml v1.0.0 + libmatroska v1.0.0
    Video
    ID : 1
    Format : AVC
    Format/Info : Advanced Video Codec
    Format profile :High@L3.1
    Format settings, CABAC : Yes
    Format settings, ReFrames : 4 frames
    Codec ID : V_MPEG4/ISO/AVC
    Duration : 42mn 30s
    Bit rate : 820 Kbps
    Width : 720 pixels
    Height : 592 pixels
    Display aspect ratio : 1.294
    Original display aspect ratio : 1.216
    Frame rate mode : Variable
    Frame rate : 24.729 fps
    Color space : YUV
    Chroma subsampling : 4:2:0
    Bit depth : 8 bits
    Scan type : Progressive
    Bits/(Pixel*Frame) : 0.078
    Stream size : 249 MiB (65%)
    Language : English
    Default : Yes
    Forced : No
    Color primaries : BT.601-6 525, BT.1358 525, BT.1700 NTSC, SMPTE 170M
    Transfer characteristics : BT.709-5, BT.1361
    Matrix coefficients : BT.601-6 525, BT.1358 525, BT.1700 NTSC, SMPTE 170M
    Audio #1
    ID : 2
    Format : AC-3
    Format/Info : Audio Coding 3
    Mode extension : CM (complete main)
    Format settings, Endianness : Big
    Codec ID : A_AC3
    Duration : 42mn 30s
    Bit rate mode : Constant
    Bit rate : 192 Kbps
    Channel(s) : 2 channels
    Channel positions : Front: L R
    Sampling rate : 48.0 KHz
    Bit depth : 16 bits
    Compression mode : Lossy
    Stream size : 58.4 MiB (15%)
    Language : Russian
    Default : Yes
    Forced : No
    Audio #2
    ID : 3
    Format : AC-3
    Format/Info : Audio Coding 3
    Mode extension : CM (complete main)
    Format settings, Endianness : Big
    Codec ID : A_AC3
    Duration : 42mn 30s
    Bit rate mode : Constant
    Bit rate : 224 Kbps
    Channel(s) : 2 channels
    Channel positions : Front: L R
    Sampling rate : 48.0 KHz
    Bit depth : 16 bits
    Compression mode : Lossy
    Stream size : 68.1 MiB (18%)
    Language : English
    Default : No
    Forced : No


    Скриншоты для ознакомления




    Онлайн видео Робокоп



    Робокоп/RoboCop (1994) DVDRip [H.264] (сезон 1, серии 1-22 из 22) OMSKBIRD
    загрузка...
    Рейтинг →
     (голосов: 1, оценка 4/5, голосовать можно 1 раз )

    Другие торренты по теме:

  • РобоКоп / RoboCop (2014) HDRip [AVO] скачать через торрент бесплатно
  • РобоКоп / RoboCop (2014) BDRip [H.264 / 720p]
  • Робокоп / RoboCop (1987) BDRip [H.265 / 1080p] [Remastered Directors Cut]
  • Робокоп / RoboCop (1987) BDRip [H.264 / 1080p-LQ]
  • Робокоп / RoboCop (1987) BDRip [H.265 / 1080p-LQ] [Remastered Directors Cut]
  • Робокоп: Трилогия / RoboCop: Trilogy (1987,1990,1993) BDRip [720p] скачать через торрент бесплатно
  • Робокоп: Трилогия / RoboCop: Trilogy (1987 / 1990 / 1993) BDRip [H.264 / 1080p] скачать через торрент бесплатно
  • Робокоп 2 / RoboCop 2 (1990) BDRip [H.264 / 1080p-LQ]


    • Комментарии (0):

      Информация

      Информация

        Посетители, находящиеся в группе Гости, не могут оставлять комментарии в данной новости.

        ↓ Меню




        ↓ Опрос

        Вы добавили сайт в закладки?
        Да
        Нет


        Top 10 за месяц (Фильмы)