.
Авторизация | Регистрация
Хочешь лучшие торренты? Добавь свой email!
Добавить

Торрент скачать бесплатно

» » Моя земля / Under sandet (2015) HDRip торрент скачать бесплатно




    Моя земля / Under sandet (2015) HDRip торрент скачать бесплатно

    Опубликовал: Админ | Дата: 5-05-2016, 04:00 | Просмотров: 14

    Производство: Дания, Германия/Amusement Park Films, Nordisk Film A/S, Zweites Deutsches Fernsehen (ZDF)
    Жанр: Драма, Военный, История
    Режиссер: Мартин Зандвлиет

    Актеры
    Роланд Мюллер, Миккель Боэ Фёльсгор, Луис Хофманн, Йоэль Басман, Оскар Бёкельманн, Эмиль Бушов, Оскар Бушов, Леон Зайдель, Лаура Бро...

    Описание

    Дания, май 1945 г. Для очистки датского западного побережья от немецких наземных мин привлечены две тысячи немецких военнопленных. В распоряжение сержанта датской армии Карла Рассмусена поступают 14 юнцов. Они вынуждены учиться нелёгкому сапёрному делу, в котором ошибаются только один раз.

    Рейтинг MPAA: R (лицам до 17 лет обязательно присутствие взрослого)
    Премьера (Мир): 10 сентября 2015
    Премьера (РФ): 25 апреля 2016

    Продолжительность: 01: 40: 45
    Качество видео: HDRip
    Перевод: Любительский одноголосый закадровый (zamez)
    Субтитры: Отсутствуют
    Видео: XviD, 720x304 (2.35: 1), 24.000 fps, 1605 Kbps (0.306 bit/pixel)
    Аудио: AC-3, 48.0 KHz, 6 ch, 448 Kbps, CBR
    Код:

    Формат : AVI
    Формат/Информация : Audio Video Interleave
    Размер файла : 1, 45 Гбайт
    Продолжительность : 1 ч. 40 м.
    Общий поток : 2063 Кбит/сек
    Программа кодирования : VirtualDubMod 1.5.10.3 |www.virtualdub-fr.org|| (build 2550/release)
    Библиотека кодирования : VirtualDubMod build 2550/release
    Видео
    Идентификатор : 0
    Формат : MPEG-4 Visual
    Профиль формата : Advanced Simple@L5
    Параметр BVOP формата : 1
    Параметр QPel формата : Нет
    Параметр GMC формата : Без точки перехода
    Параметр матрицы формата : Выборочная
    Идентификатор кодека : XVID
    Идентификатор кодека/Подсказка : XviD
    Продолжительность : 1 ч. О таком странном сюжете не догадывалась даже Бейонсе. 40 м.
    Битрейт : 1605 Кбит/сек
    Ширина : 720 пикселей
    Высота : 304 пикселя
    Соотношение сторон : 2, 35:1
    Частота кадров : 24, 000 кадра/сек
    Цветовое пространство : YUV
    Субдискретизация насыщенности : 4:2:0
    Битовая глубина : 8 бит
    Тип развёртки : Прогрессивная
    Метод сжатия : С потерями
    Бит/(Пиксели*Кадры) : 0.306
    Размер потока : 1, 13 Гбайт (78%)
    Библиотека кодирования : XviD 73
    Аудио
    Идентификатор : 1
    Формат : AC-3
    Формат/Информация : Audio Coding 3
    Расширение режима : CM (complete main)
    Параметр Endianness формата : Big
    Идентификатор кодека : 2000
    Продолжительность : 1 ч. 40 м.
    Вид битрейта : Постоянный
    Битрейт : 448 Кбит/сек
    Каналы : 6 каналов
    Расположение каналов : Front: L C R, Side: L R, LFE
    Частота : 48, 0 КГц
    Битовая глубина : 16 бит
    Метод сжатия : С потерями
    Размер потока : 323 Мбайт (22%)
    Выравнивание : Разделение по промежуткам
    Продолжительность промежутка : 42 мс. (1, 00 видеокадр)
    Время предзагрузки промежутка : 500 мс.


    Скриншоты для ознакомления




    Онлайн видео Моя земля



    Моя земля/Under sandet (2015) HDRip
    загрузка...
    Рейтинг →
     (голосов: 1, оценка 3/5, голосовать можно 1 раз )

    Другие торренты по теме:

  • Моя земля / Under sandet (2015) BDRip [H.264 / 1080p] [DAN / RU, DAN Sub]
  • Моя земля / Under sandet (2015) BDRip [H.264 / 1080p]
  • Моя земля / Under sandet / Land Of Mine (2015) BDRip [H.264 / 720p]
  • Моя земля / Under sandet (2015) BDRip [H.264 / 1080p] [PR]


    • Комментарии (0):

      Информация

      Информация

        Посетители, находящиеся в группе Гости, не могут оставлять комментарии в данной новости.

        ↓ Меню




        ↓ Опрос

        Вы добавили сайт в закладки?
        Да
        Нет


        Top 10 за месяц (Фильмы)