.
Авторизация | Регистрация
Хочешь лучшие торренты? Добавь свой email!
Добавить

Торрент скачать бесплатно

» » Образцовый самец 2 / Zoolander 2 (2016) WEB-DL [H.264 / 720p-LQ] [Звук с CamRip] торрент скачать бесплатно




    Образцовый самец 2 / Zoolander 2 (2016) WEB-DL [H.264 / 720p-LQ] [Звук с CamRip] торрент скачать бесплатно

    Опубликовал: Админ | Дата: 4-05-2016, 04:00 | Просмотров: 34

    Производство: США/Red Hour Films, Scott Rudin Productions
    Жанр: Комедия
    Режиссер: Бен Стиллер

    Актеры
    Бен Стиллер, Пенелопа Крус, Оуэн Уилсон, Уилл Феррелл, Кристина Тейлор, Кристен Уиг, Алан Каппелли Гец, Оливия Манн, Бенедикт Камбербатч, Джастин Теру, Джастин Бибер, Мика, Милла Йовович, Деми Ловато, Ариана Гранде, Сьюзан Сарандон, Билли Зейн...

    Описание

    Триумфальное возвращение на подиумы когда-то топовых, а ныне слегка потрепанных мужчин-моделей Дерека Зуландера и Ханселя в комедии о мире, где для обретения всеобщей популярности достаточно одного селфи.

    Возраст: 16+ (зрителям, достигшим 16 лет)
    Рейтинг MPAA: PG-13 (детям до 13 лет просмотр нежелателен)
    Дата выхода DVD: 16 мая 2016, Новый Диск
    Премьера (Мир): 4 февраля 2016
    Премьера (РФ): 18 февраля 2016, Централ Партнершип

    Продолжительность: 01: 42: 16
    Качество видео: WEB-DL
    Перевод: Дублированный (звук с CamRip)
    Субтитры: Отсутствуют
    Реклама: Присутствуют голосовые и текстовые вставки рекламы.
    Видео: AVC, 1280x532 (2.40: 1), 23.976 fps, 3 960 Kbps (0.243 bit/pixel)
    Аудио: AC-3, 48.0 KHz, 2 ch, 192 Kbps, CBR (Russian)
    Аудио: AC-3, 48.0 KHz, 6 ch, 384 Kbps, CBR (English)
    Код:

    Формат : Matroska
    Версия формата : Version 2
    Размер файла : 3, 31 Гбайт
    Продолжительность : 1 ч. 42 м.
    Общий поток : 4629 Кбит/сек
    Название фильма : 9.Songs.2004.DTS-HD.DTS.1080p.BluRay.x264.HQ-TUSAHD
    Дата кодирования : UTC 2016-05-03 08:21:15
    Программа кодирования : mkvmerge v8.3.0 (\'Over the Horizon\') 64bit
    Библиотека кодирования : libebml v1.3.1 + libmatroska v1.4.2
    DURATION : 01:41:45.952000000
    NUMBER_OF_FRAMES : 190811
    NUMBER_OF_BYTES : 146542848
    _STATISTICS_WRITING_APP : mkvmerge v8.3.0 (\'Over the Horizon\') 64bit
    _STATISTICS_WRITING_DATE_UTC : 2016-05-03 08:21:15
    _STATISTICS_TAGS : BPS DURATION NUMBER_OF_FRAMES NUMBER_OF_BYTES
    Видео
    Идентификатор : 1
    Формат : AVC
    Формат/Информация : Advanced Video Codec
    Профиль формата :Main@L3.1
    Параметр CABAC формата : Нет
    Параметр ReFrames формата : 2 кадра
    Идентификатор кодека : V_MPEG4/ISO/AVC
    Продолжительность : 1 ч. 42 м.
    Битрейт : 3960 Кбит/сек
    Ширина : 1280 пикселей
    Высота : 532 пикселя
    Соотношение сторон : 2, 40:1
    Режим частоты кадров : Постоянный
    Частота кадров : 23, 976 кадра/сек
    Цветовое пространство : YUV
    Субдискретизация насыщенности : 4:2:0
    Битовая глубина : 8 бит
    Тип развёртки : Прогрессивная
    Бит/(Пиксели*Кадры) : 0.243
    Размер потока : 2, 83 Гбайт (86%)
    Язык : English
    Default : Да
    Forced : Нет
    Цветовой диапазон : Limited
    Основные цвета : BT.709
    Характеристики трансфера : BT.709
    Коэффициенты матрицы : BT.709
    Аудио #1
    Идентификатор : 2
    Формат : AC-3
    Формат/Информация : Audio Coding 3
    Расширение режима : CM (complete main)
    Параметр Endianness формата : Big
    Идентификатор кодека : A_AC3
    Продолжительность : 1 ч. 42 м.
    Вид битрейта : Постоянный
    Битрейт : 192 Кбит/сек
    Каналы : 2 канала
    Расположение каналов : Front: L R
    Частота : 48, 0 КГц
    Битовая глубина : 16 бит
    Метод сжатия : С потерями
    Размер потока : 140 Мбайт (4%)
    Язык : Russian
    Default : Да
    Forced : Нет
    Аудио #2
    Идентификатор : 3
    Формат : AC-3
    Формат/Информация : Audio Coding 3
    Расширение режима : CM (complete main)
    Параметр Endianness формата : Big
    Идентификатор кодека : A_AC3
    Продолжительность : 1 ч. 42 м.
    Вид битрейта : Постоянный
    Битрейт : 384 Кбит/сек
    Каналы : 6 каналов
    Расположение каналов : Front: L C R, Side: L R, LFE
    Частота : 48, 0 КГц
    Битовая глубина : 16 бит
    Метод сжатия : С потерями
    Размер потока : 281 Мбайт (8%)
    Язык : English
    Default : Нет
    Forced : Нет
    Текст
    Идентификатор : 4
    Формат : UTF-8
    Идентификатор кодека : S_TEXT/UTF8
    Идентификатор кодека/Информация : UTF-8 Plain Text
    Язык : English
    Default : Нет
    Forced : Нет
    Меню
    00:00:00.000 : en:Chapter 1
    00:07:38.000 : en:Chapter 2
    00:12:23.000 : en:Chapter 3
    00:15:24.000 : en:Chapter 4
    00:22:47.000 : en:Chapter 5
    00:28:39.000 : en:Chapter 6
    00:31:05.000 : en:Chapter 7
    00:36:40.000 : en:Chapter 8
    00:42:52.000 : en:Chapter 9
    00:48:52.000 : en:Chapter 10
    00:56:55.000 : en:Chapter 11
    01:06:58.000 : en:Chapter 12
    01:14:31.000 : en:Chapter 13
    01:18:15.000 : en:Chapter 14
    01:23:40.000 : en:Chapter 15
    01:33:13.000 : en:Chapter 16


    Скриншоты для ознакомления




    Онлайн видео Образцовый самец 2



    Образцовый самец 2/Zoolander 2 (2016) WEB-DL [H.264/720p-LQ] [Звук с CamRip]
    загрузка...
    Рейтинг →
     (голосов: 1, оценка 4/5, голосовать можно 1 раз )

    Другие торренты по теме:

  • Образцовый самец / Zoolander (2001) HDRip [H.264] скачать через торрент бесплатно
  • Образцовый самец 2 / Zoolander 2 (2016) WEB-DLRip [Звук с CamRip]
  • Образцовый самец 2 / Zoolander 2 (2016) WEB-DL [H.264 / 1080p-LQ] [Звук с CamRip]
  • Образцовый самец 2 / Zoolander 2 (2016) WEB-DL [H.264 / 720p-LQ] [EN / EN Sub]
  • Образцовый самец 2 / Zoolander 2 (2016) WEB-DL [H.264 / 1080p-LQ] [Line]
  • Образцовый самец 2 / Zoolander 2 (2016) WEB-DL [H.264 / 720p-LQ] [Line]
  • Образцовый самец 2 / Zoolander 2 (2016) WEB-DLRip [Line]
  • Образцовый самец 2 / Zoolander 2 (2016) BDRip [H.264 / 1080p] [EN]


    • Комментарии (0):

      Информация

      Информация

        Посетители, находящиеся в группе Гости, не могут оставлять комментарии в данной новости.

        ↓ Меню




        ↓ Опрос

        Вы добавили сайт в закладки?
        Да
        Нет


        Top 10 за месяц (Фильмы)