.
Авторизация | Регистрация
Хочешь лучшие торренты? Добавь свой email!
Добавить

Торрент скачать бесплатно

» » Переход / The Passage (1978) DVDRip [H.264] торрент скачать бесплатно




    Переход / The Passage (1978) DVDRip [H.264] торрент скачать бесплатно

    Опубликовал: Админ | Дата: 3-05-2016, 04:00 | Просмотров: 10

    Производство: Страна: Великобритания, Студии: General Film, Hemdale, Monday Films, Passage Films
    Жанр: Боевик, Военный, Драма
    Режиссер: Джей Ли Томпсон

    Актеры
    Энтони Куинн, Джеймс Мейсон, Малкольм МакДауэлл, Патриция Нил, Кэй Ленц, Пол Клеменс, Кристофер Ли и др.

    Описание

    Война. Франция в 1940 году оккупирована немцами. Участники Сопротивления, стараясь спасти от нацистов ученого и его семью, нанимают проводником баскского пастуха, для перехода через Пиренейские горы в нейтральную Испанию. Их разыскивает одержимый садист — офицер СС. Начинается преследование беглецов эсэсовским безумцем и его карательным отрядом.

    Возраст: 16+ (зрителям, достигшим 16 лет)
    Продолжительность: 01: 37: 15
    Качество видео: DVDRip
    Перевод: Дублированный (советский, Мосфильм) + вставки на вырезанные места НТВ+, двухголосый закадровый НТВ+, авторский одноголосый
    Видео: AVC/H.264, 1024х432, ~2210 Kbps, 25 fps, 0, 200 bit/pixel
    Аудио#1: AC3, 2 ch, ~224 Kbps, CBR - дубляж
    Аудио#2: AC3, 2 ch, ~224 Kbps, CBR - двухголосый НТВ+
    Аудио#3: AC3, 2 ch, ~224 Kbps, CBR - одноголосый
    Аудио#4: AC3, 2 ch, ~224 Kbps, CBR - оригинальный, английский
    Аудио#5: AC3, 2 ch, ~224 Kbps, CBR - немецкий
    Код:

    General
    Unique ID : 219546242687105820479527175176367521521 (0xA52B117BE783DD7E99BFB5590F663EF1)
    Complete name : D:ПробаПереход(The Passage)1978.DVDRip.by.mebf109.mkv
    Format : Matroska
    Format version : Version 4/Version 2
    File size : 2.26 GiB
    Duration : 1h 37mn
    Overall bit rate : 3 333 Kbps
    Movie name : Переход(The Passage)1978.DVDRip.by.mebf109
    Encoded date : UTC 2016-04-30 15:57:17
    Writing application : mkvmerge v6.6.0 (\'The Edge Of The In Between\') built on Dec 1 2013 17:55:00
    Writing library : libebml v1.3.0 + libmatroska v1.4.1
    Video
    ID : 1
    Format : AVC
    Format/Info : Advanced Video Codec
    Format profile :High@L4.1
    Format settings, CABAC : Yes
    Format settings, ReFrames : 7 frames
    Codec ID : V_MPEG4/ISO/AVC
    Duration : 1h 37mn
    Bit rate : 2 210 Kbps
    Width : 1 024 pixels
    Height : 432 pixels
    Display aspect ratio : 2.40:1
    Frame rate : 25.000 fps
    Color space : YUV
    Chroma subsampling : 4:2:0
    Bit depth : 8 bits
    Scan type : Progressive
    Bits/(Pixel*Frame) : 0.200
    Stream size : 1.46 GiB (64%)
    Title : Переход(The Passage)1978.DVDRip
    Writing library : x264 core 130 r2273 b3065e6
    Encoding settings : cabac=1/ref=7/deblock=1:0:0/analyse=0x3:0x133/me=umh/subme=10/psy=1/psy_rd=1.00:0.00/mixed_ref=1/me_range=32/chroma_me=1/trellis=2/8x8dct=1/cqm=0/deadzone=21, 11/fast_pskip=0/chroma_qp_offset=-2/threads=3/lookahead_threads=1/sliced_threads=0/nr=0/decimate=0/interlaced=0/bluray_compat=0/constrained_intra=0/bframes=3/b_pyramid=2/b_adapt=2/b_bias=0/direct=3/weightb=1/open_gop=0/weightp=2/keyint=250/keyint_min=25/scenecut=40/intra_refresh=0/rc_lookahead=60/rc=2pass/mbtree=1/bitrate=2210/ratetol=1.0/qcomp=0.60/qpmin=0/qpmax=69/qpstep=4/cplxblur=20.0/qblur=0.5/ip_ratio=1.40/aq=1:1.00
    Default : Yes
    Forced : No
    Audio #1
    ID : 2
    Format : AC-3
    Format/Info : Audio Coding 3
    Mode extension : CM (complete main)
    Format settings, Endianness : Big
    Codec ID : A_AC3
    Duration : 1h 37mn
    Bit rate mode : Constant
    Bit rate : 224 Kbps
    Channel(s) : 2 channels
    Channel positions : Front: L R
    Sampling rate : 48.0 KHz
    Bit depth : 16 bits
    Compression mode : Lossy
    Stream size : 156 MiB (7%)
    Title : dub(Мосфильм)
    Language : Russian
    Default : Yes
    Forced : No
    Audio #2
    ID : 3
    Format : AC-3
    Format/Info : Audio Coding 3
    Mode extension : CM (complete main)
    Format settings, Endianness : Big
    Codec ID : A_AC3
    Duration : 1h 37mn
    Bit rate mode : Constant
    Bit rate : 224 Kbps
    Channel(s) : 2 channels
    Channel positions : Front: L R
    Sampling rate : 48.0 KHz
    Bit depth : 16 bits
    Compression mode : Lossy
    Stream size : 156 MiB (7%)
    Title : Двухголосый НТВ+
    Language : Russian
    Default : No
    Forced : No
    Audio #3
    ID : 4
    Format : AC-3
    Format/Info : Audio Coding 3
    Mode extension : CM (complete main)
    Format settings, Endianness : Big
    Codec ID : A_AC3
    Duration : 1h 37mn
    Bit rate mode : Constant
    Bit rate : 224 Kbps
    Channel(s) : 2 channels
    Channel positions : Front: L R
    Sampling rate : 48.0 KHz
    Bit depth : 16 bits
    Compression mode : Lossy
    Stream size : 156 MiB (7%)
    Title : Одноголосый
    Language : Russian
    Default : No
    Forced : No
    Audio #4
    ID : 5
    Format : AC-3
    Format/Info : Audio Coding 3
    Mode extension : CM (complete main)
    Format settings, Endianness : Big
    Codec ID : A_AC3
    Duration : 1h 37mn
    Bit rate mode : Constant
    Bit rate : 224 Kbps
    Channel(s) : 2 channels
    Channel positions : Front: L R
    Sampling rate : 48.0 KHz
    Bit depth : 16 bits
    Compression mode : Lossy
    Stream size : 156 MiB (7%)
    Title : Eng
    Language : English
    Default : No
    Forced : No
    Audio #5
    ID : 6
    Format : AC-3
    Format/Info : Audio Coding 3
    Mode extension : CM (complete main)
    Format settings, Endianness : Big
    Codec ID : A_AC3
    Duration : 1h 37mn
    Bit rate mode : Constant
    Bit rate : 224 Kbps
    Channel(s) : 2 channels
    Channel positions : Front: L R
    Sampling rate : 48.0 KHz
    Bit depth : 16 bits
    Compression mode : Lossy
    Stream size : 156 MiB (7%)
    Title : Ger
    Language : German
    Default : No
    Forced : No


    Онлайн видео Переход



    Переход/The Passage (1978) DVDRip [H.264]
    загрузка...
    Рейтинг →
     (голосов: 1, оценка 3/5, голосовать можно 1 раз )

    Другие торренты по теме:

  • Переход / Le passage (1986) DVDRip скачать через торрент бесплатно


    • Комментарии (0):

      Информация

      Информация

        Посетители, находящиеся в группе Гости, не могут оставлять комментарии в данной новости.

        ↓ Меню




        ↓ Опрос

        Вы добавили сайт в закладки?
        Да
        Нет


        Top 10 за месяц (Фильмы)