.
Авторизация | Регистрация
Хочешь лучшие торренты? Добавь свой email!
Добавить

Торрент скачать бесплатно

» » Верующие / The Believers (1987) BDRip [H.264 / 1080p] торрент скачать бесплатно




    Верующие / The Believers (1987) BDRip [H.264 / 1080p] торрент скачать бесплатно

    Опубликовал: Админ | Дата: 2-05-2016, 04:00 | Просмотров: 27

    Производство: США
    Жанр: Ужасы, Триллер, Драма, Криминал
    Режиссер: Джон Шлезингер

    Актеры
    Мартин Шин, Хелен Шейвер, Харли Кросс, Роберт Лоджа, Элизабет Уилсон, Харрис Юлин, Ли Ричардсон, Ричард Мэсур, Джимми Смитс, Рауль Давила, Малик Боуэнс, Джанет-Дэйн Грин, Ларри Рамос, Филип Кори

    Описание

    У психолога Кэла Джеймисона погибает жена. Вместе с сыном Крисом он переезжает в Нью-Йорк, где ему предложили место консультанта в полиции. Однажды Крис обнаруживает в парке следы ритуальной колдовской оргии. Он берется расследовать этот случай и знакомится со специалистом по религиозным культам.

    Возраст: 0+ (для любой зрительской аудитории)
    Рейтинг MPAA: R (лицам до 17 лет обязательно присутствие взрослого)
    Продолжительность: 01: 54: 19
    Качество видео: BDRip
    Перевод: Дублированный, Профессиональный (многоголосый, закадровый)
    Язык субтитров: Английский (SDH)
    Вид субтитров: Вшитые отключаемые
    Видео: AVC/H.264, 1920x1040, ~12 Mbps
    Аудио 1: AC3, 48.0 kHz, 2 ch, 192 Kbps, CBR - Русский (DUB, Варус видео )
    Аудио 2: AC3, 48.0 kHz, 2 ch, 192 Kbps, CBR - Русский (MVO, НТВ+ )
    Аудио 3: AC3, 48.0 kHz, 2 ch, 192 Kbps, CBR - Английский (Оригинал )
    Код:

    Общее
    Уникальный идентификатор : 198376682051509720931173889981320980725 (0x953DF58FA575058E9E8E8399FE4EE8F5)
    Полное имя : E:ТОРРЕНТ РАЗДАЧИThe Believers (1987) BDRip [1080p] NNM-CLUBВерующие. The Believers (1987) BDRip [1080p] NNM-CLUB.mkv
    Формат : Matroska
    Версия формата : Version 4/Version 2
    Размер файла : 10, 0 Гбайт
    Продолжительность : 1 ч. 54 м.
    Общий поток : 12, 6 Мбит/сек
    Название фильма : THE_BELIEVERS (1987) BDRip [1080p] - Release for NNMClub
    Дата кодирования : UTC 2016-05-01 01:34:10
    Программа кодирования : mkvmerge v9.1.0 (\'Little Earthquakes\') 64bit
    Библиотека кодирования : libebml v1.3.3 + libmatroska v1.4.4
    Видео
    Идентификатор : 1
    Формат : AVC
    Формат/Информация : Advanced Video Codec
    Профиль формата :High@L4.1
    Параметр CABAC формата : Да
    Параметр ReFrames формата : 2 кадра
    Идентификатор кодека : V_MPEG4/ISO/AVC
    Продолжительность : 1 ч. 54 м.
    Битрейт : 12, 0 Мбит/сек
    Ширина : 1920 пикселей
    Высота : 1040 пикселей
    Соотношение сторон : 1, 85:1
    Режим частоты кадров : Постоянный
    Частота кадров : 23, 976 (24000/1001) кадра/сек
    Цветовое пространство : YUV
    Субдискретизация насыщенности : 4:2:0
    Битовая глубина : 8 бит
    Тип развёртки : Прогрессивная
    Бит/(Пиксели*Кадры) : 0.250
    Размер потока : 9, 55 Гбайт (95%)
    Библиотека кодирования : x264 core
    Default : Да
    Forced : Нет
    Цветовой диапазон : Limited
    Основные цвета : BT.709
    Характеристики трансфера : BT.709
    Коэффициенты матрицы : BT.709
    Аудио #1
    Идентификатор : 2
    Формат : AC-3
    Формат/Информация : Audio Coding 3
    Расширение режима : CM (complete main)
    Параметр Endianness формата : Big
    Идентификатор кодека : A_AC3
    Продолжительность : 1 ч. 54 м.
    Вид битрейта : Постоянный
    Битрейт : 192 Кбит/сек
    Каналы : 2 канала
    Расположение каналов : Front: L R
    Частота : 48, 0 КГц
    Частота кадров : 31, 250 кадров/сек (1536 spf)
    Метод сжатия : С потерями
    Размер потока : 157 Мбайт (2%)
    Заголовок : Профессиональный (дублированный) Варус видео
    Язык : Russian
    Default : Да
    Forced : Нет
    Аудио #2
    Идентификатор : 3
    Формат : AC-3
    Формат/Информация : Audio Coding 3
    Расширение режима : CM (complete main)
    Параметр Endianness формата : Big
    Идентификатор кодека : A_AC3
    Продолжительность : 1 ч. Вот в чём загвоздка, сказал кто то из толпы, к чему не понятно. 54 м.
    Вид битрейта : Постоянный
    Битрейт : 192 Кбит/сек
    Каналы : 2 канала
    Расположение каналов : Front: L R
    Частота : 48, 0 КГц
    Частота кадров : 31, 250 кадров/сек (1536 spf)
    Метод сжатия : С потерями
    Размер потока : 157 Мбайт (2%)
    Заголовок : Профессиональный (многоголосый закадровый) НТВ+
    Язык : Russian
    Default : Нет
    Forced : Нет
    Аудио #3
    Идентификатор : 5
    Формат : AC-3
    Формат/Информация : Audio Coding 3
    Расширение режима : CM (complete main)
    Параметр Endianness формата : Big
    Идентификатор кодека : A_AC3
    Продолжительность : 1 ч. 54 м.
    Вид битрейта : Постоянный
    Битрейт : 192 Кбит/сек
    Каналы : 2 канала
    Расположение каналов : Front: L R
    Частота : 48, 0 КГц
    Частота кадров : 31, 250 кадров/сек (1536 spf)
    Метод сжатия : С потерями
    Размер потока : 157 Мбайт (2%)
    Заголовок : Оригинальный
    Язык : English
    Default : Нет
    Forced : Нет
    Текст
    Идентификатор : 4
    Формат : PGS
    Режим смешивания : zlib
    Идентификатор кодека : S_HDMV/PGS
    Идентификатор кодека/Информация : Picture based subtitle format used on BDs/HD-DVDs
    Продолжительность : 1 ч. 48 м.
    Битрейт : 12, 2 Кбит/сек
    Count of elements : 2934
    Размер потока : 9, 49 Мбайт (0%)
    Язык : English
    Default : Да
    Forced : Нет
    Меню
    00:00:00.000 : en:(01)00:00:00:000
    00:10:22.038 : en:(02)00:10:22:038
    00:19:35.382 : en:(03)00:19:35:382
    00:30:59.649 : en:(04)00:30:59:649
    00:40:45.317 : en:(05)00:40:45:317
    00:49:17.829 : en:(06)00:49:17:829
    00:59:13.716 : en:(07)00:59:13:716
    01:09:50.144 : en:(08)01:09:50:144
    01:20:13.308 : en:(09)01:20:13:308
    01:30:08.069 : en:(10)01:30:08:069
    01:40:37.239 : en:(11)01:40:37:239
    01:49:31.398 : en:(12)01:49:31:398
    01:54:22.897 : en:(13)01:54:22:897


    Скриншоты для ознакомления




    Онлайн видео Верующие



    Верующие/The Believers (1987) BDRip [H.264/1080p]
    загрузка...
    Рейтинг →
     (голосов: 1, оценка 5/5, голосовать можно 1 раз )

    Другие торренты по теме:



      Комментарии (0):

      Информация

      Информация

        Посетители, находящиеся в группе Гости, не могут оставлять комментарии в данной новости.

        ↓ Меню




        ↓ Опрос

        Вы добавили сайт в закладки?
        Да
        Нет


        Top 10 за месяц (Фильмы)