.
Авторизация | Регистрация
Хочешь лучшие торренты? Добавь свой email!
Добавить

Торрент скачать бесплатно

» » Агент / Поворот / Turn (2015) WEB-DLRip (сезон 2, серии 1-10 из 10) BaibaKo торрент скачать бесплатно




    Агент / Поворот / Turn (2015) WEB-DLRip (сезон 2, серии 1-10 из 10) BaibaKo торрент скачать бесплатно

    Опубликовал: Админ | Дата: 30-04-2016, 04:01 | Просмотров: 18

    Производство: США
    Жанр: драма, военный
    Режиссер: Ник Копус, Руперт Уайатт

    Актеры
    Томас Кигэн, Люк Ван Берген, Майкл Гэстон, Дж.Е. Мацер, Билли Кобб, Джеймс Невинс, Майк Стивенс, Нэйтан Фергюсон и др.

    Описание

    События сериала Поворот происходят в 1778 году. Самое интересное в это истории, что об этом Бетмен ничего не знал. Нью-йоркский фермер, который живет на захваченном британцами острове Лонг-Айленд, решает помочь своим соотечественникам в борьбе за независимость. Благодатная почва, сказал кто то из толпы, к чему не понятно. Герой сериала собирает вокруг себя группу друзей детства, с помощью которых организовывает шпионскую сеть, призванную предоставлять информацию Джорджу Вашингтону. Эта удивительная успешная шпионская сеть в конце концов оказала огромное влияние на ход американской войны за независимость.

    Продолжительность: ~00: 45: 00 серия
    Качество видео: WEB-DLRip
    Перевод: Многоголосый закадровый, профессиональный -BaibaKo
    Автор перевода: Янина Галицкая и Наталья Черненко
    Озвучка: Светлана Доманова, Владимир Курдов, Олекса Мельник и Дмитрий Глебов
    Видео: XviD, 720x400 (16: 9), ~1500 kb/s
    Аудио Rus: MPEG Layer 3, 48, 0 kHz, 2 ch, 192 kb/s — многоголосый закадровый
    Аудио Eng: MPEG Layer 3, 48, 0 kHz, 2 ch, 192 kb/s — оригинал
    Общее
    Полное имя : D: Поворот (сезон любимого сериала 2) TURN (2015) WEB- DLRip - BaibaKoTurn.s02e01.WEB-DLRip.XviD.Rus.Eng.BaibaKo.tv.avi
    Формат : AVI
    Формат/Информация : Audio Video Interleave
    Размер файла : 619 Мбайт
    Продолжительность : 45 м.
    Общий поток : 1904 Кбит/сек
    Программа кодирования : VirtualDubMod 1.5.10.2 (build 2540/release)
    Библиотека кодирования : VirtualDubMod build 2540/release
    Видео
    Идентификатор : 0
    Формат : MPEG-4 Visual
    Профиль формата : Advanced Simple@L5
    Параметр BVOP формата : 2
    Параметр QPel формата : Нет
    Параметр GMC формата : Без точки перехода
    Параметр матрицы формата : Default (H.263)
    Идентификатор кодека : XVID
    Идентификатор кодека/Подсказка : XviD
    Продолжительность : 45 м.
    Битрейт : 1506 Кбит/сек
    Ширина : 720 пикселей
    Высота : 400 пикселей
    Соотношение сторон : 16: 9
    Частота кадров : 23, 976 кадра/сек
    Цветовое пространство : YUV
    Субдискретизация насыщенности : 4: 2: 0
    Битовая глубина : 8 бит
    Тип развёртки : Прогрессивная
    Метод сжатия : С потерями
    Бит/(Пиксели*Кадры) : 0.218
    Размер потока : 490 Мбайт (79%)
    Библиотека кодирования : XviD 1.2.1 (UTC 2008-12-04)
    Аудио #1
    Идентификатор : 1
    Формат : MPEG Audio
    Версия формата : Version 1
    Профиль формата : Layer 3
    Режим : Joint stereo
    Расширение режима : MS Stereo
    Идентификатор кодека : 55
    Идентификатор кодека/Подсказка : MP3
    Продолжительность : 45 м.
    Вид битрейта : Постоянный
    Битрейт : 192 Кбит/сек
    Каналы : 2 канала
    Частота : 48, 0 КГц
    Метод сжатия : С потерями
    Размер потока : 62, 4 Мбайт (10%)
    Выравнивание : Соединение по промежуткам
    Продолжительность промежутка : 42 мс. (1, 00 видеокадр)
    Время предзагрузки промежутка : 504 мс.
    Аудио #2
    Идентификатор : 2
    Формат : MPEG Audio
    Версия формата : Version 1
    Профиль формата : Layer 3
    Режим : Joint stereo
    Расширение режима : MS Stereo
    Идентификатор кодека : 55
    Идентификатор кодека/Подсказка : MP3
    Продолжительность : 45 м.
    Вид битрейта : Постоянный
    Битрейт : 192 Кбит/сек
    Каналы : 2 канала
    Частота : 48, 0 КГц
    Метод сжатия : С потерями
    Размер потока : 62, 4 Мбайт (10%)
    Выравнивание : Соединение по промежуткам
    Продолжительность промежутка : 42 мс. (1, 00 видеокадр)
    Время предзагрузки промежутка : 504 мс.


    Скриншоты для ознакомления




    Онлайн видео Агент



    Агент/Поворот/Turn (2015) WEB-DLRip (сезон 2, серии 1-10 из 10) BaibaKo
    загрузка...
    Рейтинг →
     (голосов: 1, оценка 3/5, голосовать можно 1 раз )

    Другие торренты по теме:

  • Агент / Поворот / Turn (2014) WEB-DLRip (сезон 1, серии 1-10 из 10) Lostfilm скачать через торрент бесплатно
  • Агент / Поворот / Turn (2015) WEB-DLRip (сезон 2, серии 1 из 10) Lostfilm (обновляемая) скачать через торрент бесплатно
  • Агент / Поворот / Turn (2015) WEB-DLRip (сезон 2, серии 1-2 из 10) BaibaKo (обновляемая) скачать через торрент бесплатно
  • Агент / Поворот / Turn (2016) WEB-DLRip (сезон 3, серии 1 из 10) Lostfilm (обновляемая)


    • Комментарии (0):

      Информация

      Информация

        Посетители, находящиеся в группе Гости, не могут оставлять комментарии в данной новости.

        ↓ Меню




        ↓ Опрос

        Вы добавили сайт в закладки?
        Да
        Нет


        Top 10 за месяц (Фильмы)