.
Авторизация | Регистрация
Хочешь лучшие торренты? Добавь свой email!
Добавить

Торрент скачать бесплатно

» » Деньги (2016) HDTV [H.264 / 1080i] (серии 1-6 из 8) (обновляемая) торрент скачать бесплатно




    Деньги (2016) HDTV [H.264 / 1080i] (серии 1-6 из 8) (обновляемая) торрент скачать бесплатно

    Опубликовал: Админ | Дата: 29-04-2016, 04:01 | Просмотров: 11

    Производство: Россия/Кинокомпания Русское
    Жанр: мелодрама
    Режиссер: Егор Анашкин

    Актеры
    Фёдор Лавров, Ольга Дыховичная, Дарья Екамасова, Александр Асташёнок, Анастасия Савосина, Мария Беккер, Алексей Фаддеев, Дарья Грачёва, Елена Грехова, Владислав Ветров, Анастасия Лапина, Сергей Шеховцов, Елена Степанова, Анатолий Узденский, Николай Лунин, Виктор Полторацкий и др.

    Описание

    Алексей Баранников – талантливый советский ученый. Будучи совсем молодым, он волей случая оказывается в опале, и его высылают из Москвы. Участь Алексея разделяет его любящая невеста Людмила. Блошиный рынок, сказал кто то из толпы, к чему не понятно. В жизни Баранниковых наступают тяжелые времена. Алексей долгие годы тщетно пытается запатентовать свои изобретения, получая бессменный отказ, а все бытовые заботы ложатся на плечи Люды. Однажды Алексей становится случайным свидетелем убийства фальшивомонетчика. О таком странном сюжете не догадывалась даже Вера Брежнева. Это событие совпадает с тяжелейшем кризисом в жизни Баранниковых. Тогда Алексей решается на сумасшедшую аферу, которая сулит в одночасье изменить унылую, серую жизнь…

    Дата премьеры в России: 25 апреля 2016
    Продолжительность: ~00: 46: 00 серия
    Качество видео: HDTV (1080i)
    Видео: AVC/H.264, 1920x1080 (16: 9), ~7900 Kbps
    Аудио: MP2, 2 ch, 192 Kbps, CBR
    Код:
    General
    ID : 1 (0x1)
    Complete name : D:Dengi.2015.HDTV.1080iDengi.01.2015.HDTV.1080i.ts
    Format : MPEG-TS
    File size : 2.73 GiB
    Duration : 46mn 6s
    Overall bit rate mode : Variable
    Overall bit rate : 8 484 Kbps
    Video
    ID : 2911 (0xB5F)
    Menu ID : 1119 (0x45F)
    Format : AVC
    Format/Info : Advanced Video Codec
    Format profile : High@L4
    Format settings, CABAC : Yes
    Format settings, ReFrames : 4 frames
    Codec ID : 27
    Duration : 46mn 7s
    Bit rate : 7 871 Kbps
    Width : 1 920 pixels
    Height : 1 080 pixels
    Display aspect ratio : 16:9
    Frame rate : 25.000 fps
    Color space : YUV
    Chroma subsampling : 4:2:0
    Bit depth : 8 bits
    Scan type : MBAFF
    Scan type, store method : Interleaved fields
    Scan order : Top Field First
    Bits/(Pixel*Frame) : 0.152
    Stream size : 2.54 GiB (93%)
    Audio
    ID : 2912 (0xB60)
    Menu ID : 1119 (0x45F)
    Format : MPEG Audio
    Format version : Version 1
    Format profile : Layer 2
    Codec ID : 3
    Duration : 46mn 7s
    Bit rate mode : Constant
    Bit rate : 192 Kbps
    Channel(s) : 2 channels
    Sampling rate : 48.0 KHz
    Compression mode : Lossy
    Stream size : 63.3 MiB (2%)
    Language : Russian


    Скриншоты для ознакомления




    Онлайн видео Деньги (2016) HDTV [H.264



    Деньги (2016) HDTV [H.264/1080i] (серии 1-6 из 8) (обновляемая)
    загрузка...
    Рейтинг →
     (голосов: 1, оценка 3/5, голосовать можно 1 раз )

    Другие торренты по теме:

  • Майкл Краниш, Марк Фишер | Законы Трампа. Амбиции, эго, деньги и власть (2017) [FB2, EPUB]
  • Сергей Змеев | Онлайн-конференция - 3D: Деньги в Бизнесе! Деньги в Инфобизнесе! Деньги в Инвестициях! (2012) DVDRip [H.264]
  • Вики Робин и др. | Кошелек или жизнь Вы контролируете деньги, или Деньги контролируют вас (2016) [EPUB, FB2, MOBI] скачать через торрент бесплатно
  • Роман Агаршоков | Деньги есть всегда. Как правильно тратить деньги, чтобы хватало на все и даже больше (2016) [MP3]
  • Роман Аргашоков | Деньги есть всегда. Как правильно тратить деньги, чтобы хватало на все и даже больше (2016) [FB2]
  • Шальные деньги: Роскошная жизнь / Snabba cash - Livet deluxe (2013) BDRemux [1080p]
  • Шальные деньги: Роскошная жизнь / Snabba cash - Livet deluxe (2013) BDRip [1080p] ATV
  • Грязные деньги и любовь / Kara para ask (2014) HDTVRip [сезон 1-2, серия 1-17 из 40] turok1990 (обновляемая) скачать через торрент бесплатно


    • Комментарии (0):

      Информация

      Информация

        Посетители, находящиеся в группе Гости, не могут оставлять комментарии в данной новости.

        ↓ Меню




        ↓ Опрос

        Вы добавили сайт в закладки?
        Да
        Нет


        Top 10 за месяц (Фильмы)